Loading...
Error

Капитан / Der Hauptmann (Роберт Швентке) [2017 г., драма, военный, история, BDRemux 1080p] MVO (HDRezka Studio) | AVO (Ю. Сербин)

Ответить на тему
 
Автор Сообщение

Theseus

Стаж: 9 лет 8 месяцев

Сообщений: 4912

Режим только чтение: НЕТ

post 07-Май-2019 17:43

Quote

Капитан / Der Hauptmann

Год выхода: 2017
Страна: Германия, Франция, Польша, Китай, Португалия
Жанр: драма, военный, история
Продолжительность: 01:59:24
Перевод 1: Профессиональный многоголосый | HDRezka Studio
Перевод 2: Авторский (закадровый) | Ю. Сербин
Субтитры: Русские, Английские, Немецкие
Режиссер: Роберт Швентке
В ролях: Макс Хубахер, Милан Пешель, Фредерик Лау, Вальдемар Кобус, Александр Фелинг, Самуэль Финци, Вольфрам Кох, Евгения Анселен, Хендрик Арнст
О фильме: В последние дни Второй мировой войны измученный и голодный 19-летний рядовой похищает капитанский мундир. Прикидываясь офицером, он собирает группу дезертиров и собирается всеми возможными средствами пробивать себе путь сквозь опустошённую нацистскую Германию

Качество: BDRemux 1080p
Формат: MKV
Видео кодек: H.264
Аудио кодек: AC3, DTS-HD
Видео: AVC, 1920x1080 (16:9), 23.976 fps, 28.0 Mb/s
Аудио 1: AC-3, 48.0 kHz, 6 ch, 640 kb/s | RUS (HDRezka Studio / Монтаж 5.1 - karasidi)
Аудио 2: DTS-HD, 48.0 kHz, 6 ch, 3 793 kb/s| RUS (Ю. Сербин)
Аудио 3: DTS-HD, 48.0 kHz, 6 ch, 3 821 kb/s| GER

Код:

General
Unique ID                                : 191846393123084519666471849644114827513 (0x905445757ABA024F93F7941CB563D8F9)
Complete name                            : Der.Hauptmann.2017.BDREMUX.1080p.mkv
Format                                   : Matroska
Format version                           : Version 4
File size                                : 30.2 GiB
Duration                                 : 1 h 59 min
Overall bit rate mode                    : Variable
Overall bit rate                         : 36.2 Mb/s
Encoded date                             : UTC 2019-05-07 12:43:26
Writing application                      : mkvmerge v8.3.0 ('Over the Horizon') 64bit
Writing library                          : libebml v1.3.1 + libmatroska v1.4.2

Video
ID                                       : 1
Format                                   : AVC
Format/Info                              : Advanced Video Codec
Format profile                           : High@L4.1
Format settings                          : CABAC / 3 Ref Frames
Format settings, CABAC                   : Yes
Format settings, ReFrames                : 3 frames
Codec ID                                 : V_MPEG4/ISO/AVC
Duration                                 : 1 h 59 min
Bit rate mode                            : Variable
Bit rate                                 : 28.0 Mb/s
Maximum bit rate                         : 37.0 Mb/s
Width                                    : 1 920 pixels
Height                                   : 1 080 pixels
Display aspect ratio                     : 16:9
Frame rate mode                          : Constant
Frame rate                               : 23.976 (24000/1001) FPS
Color space                              : YUV
Chroma subsampling                       : 4:2:0
Bit depth                                : 8 bits
Scan type                                : Progressive
Bits/(Pixel*Frame)                       : 0.563
Stream size                              : 23.3 GiB (77%)
Language                                 : English
Default                                  : Yes
Forced                                   : No

Audio #1
ID                                       : 2
Format                                   : AC-3
Format/Info                              : Audio Coding 3
Commercial name                          : Dolby Digital
Codec ID                                 : A_AC3
Duration                                 : 1 h 59 min
Bit rate mode                            : Constant
Bit rate                                 : 640 kb/s
Channel(s)                               : 6 channels
Channel layout                           : L R C LFE Ls Rs
Sampling rate                            : 48.0 kHz
Frame rate                               : 31.250 FPS (1536 SPF)
Bit depth                                : 16 bits
Compression mode                         : Lossy
Stream size                              : 547 MiB (2%)
Title                                    : HDRezka
Language                                 : Russian
Default                                  : Yes
Forced                                   : No

Audio #2
ID                                       : 3
Format                                   : DTS XLL
Format/Info                              : Digital Theater Systems
Commercial name                          : DTS-HD Master Audio
Codec ID                                 : A_DTS
Duration                                 : 1 h 59 min
Bit rate mode                            : Variable
Bit rate                                 : 3 793 kb/s
Channel(s)                               : 6 channels
Channel layout                           : C L R Ls Rs LFE
Sampling rate                            : 48.0 kHz
Frame rate                               : 93.750 FPS (512 SPF)
Bit depth                                : 24 bits
Compression mode                         : Lossless
Stream size                              : 3.16 GiB (10%)
Title                                    : Ю. Сербин
Language                                 : Russian
Default                                  : No
Forced                                   : No

Audio #3
ID                                       : 4
Format                                   : DTS XLL
Format/Info                              : Digital Theater Systems
Commercial name                          : DTS-HD Master Audio
Codec ID                                 : A_DTS
Duration                                 : 1 h 59 min
Bit rate mode                            : Variable
Bit rate                                 : 3 821 kb/s
Channel(s)                               : 6 channels
Channel layout                           : C L R Ls Rs LFE
Sampling rate                            : 48.0 kHz
Frame rate                               : 93.750 FPS (512 SPF)
Bit depth                                : 24 bits
Compression mode                         : Lossless
Stream size                              : 3.19 GiB (11%)
Language                                 : German
Default                                  : No
Forced                                   : No

Text #1
ID                                       : 5
Format                                   : UTF-8
Codec ID                                 : S_TEXT/UTF8
Codec ID/Info                            : UTF-8 Plain Text
Duration                                 : 1 h 54 min
Bit rate                                 : 58 b/s
Count of elements                        : 846
Stream size                              : 49.3 KiB (0%)
Language                                 : Russian
Default                                  : No
Forced                                   : No

Text #2
ID                                       : 6
Format                                   : UTF-8
Codec ID                                 : S_TEXT/UTF8
Codec ID/Info                            : UTF-8 Plain Text
Duration                                 : 1 h 54 min
Bit rate                                 : 33 b/s
Count of elements                        : 849
Stream size                              : 28.2 KiB (0%)
Language                                 : English
Default                                  : No
Forced                                   : No

Text #3
ID                                       : 7
Format                                   : UTF-8
Codec ID                                 : S_TEXT/UTF8
Codec ID/Info                            : UTF-8 Plain Text
Duration                                 : 1 h 58 min
Bit rate                                 : 41 b/s
Count of elements                        : 1051
Stream size                              : 35.6 KiB (0%)
Language                                 : German
Default                                  : No
Forced                                   : No

Menu
00:00:00.000                             : en:Chapter 1
00:08:22.168                             : en:Chapter 2
00:16:57.516                             : en:Chapter 3
00:24:09.906                             : en:Chapter 4
00:36:53.710                             : en:Chapter 5
00:47:40.440                             : en:Chapter 6
00:58:52.820                             : en:Chapter 7
01:09:22.533                             : en:Chapter 8
01:20:07.010                             : en:Chapter 9
01:32:54.318                             : en:Chapter 10
01:44:01.026                             : en:Chapter 11
01:50:09.394                             : en:Chapter 12



Скрыт Profile PM
Показать сообщения:    
Ответить на тему

Текущее время: 22-Май 20:58

Часовой пояс: GMT + 3



Вы не можете начинать темы
Вы не можете отвечать на сообщения
Вы не можете редактировать свои сообщения
Вы не можете удалять свои сообщения
Вы не можете голосовать в опросах
Вы не можете прикреплять файлы к сообщениям
Вы не можете скачивать файлы
Рейтинг торрент трекеров - UpTracker.ru Анализ веб сайта Яндекс.Метрика
службы мониторинга серверов