Loading...
Error

Шазам! / Shazam! (Дэвид Ф. Сандберг) [2019 г., фэнтези, боевик, комедия, приключения, WEBRip 1080p] [ENG] [Rus SUB]

Ответить на тему
 
Автор Сообщение

Theseus

Стаж: 9 лет 10 месяцев

Сообщений: 4993

Режим только чтение: НЕТ

post 13-Май-2019 16:48

Quote

Шазам! / Shazam!

Год выхода: 2019
Страна: США
Жанр: фэнтези, боевик, комедия, приключения
Продолжительность: 02:10:16
Перевод: Отсутствует | Русские субтитры
Субтитры: Китайские (вшитые) , русские
Режиссер: Дэвид Ф. Сандберг
В ролях: Закари Ливай, Эшер Энджел, Джек Дилан Грейзер, Марк Стронг, Грэйс Фултон, Адам Броди, Джимон Хонсу, Фэйти Херман, Миган Гуд, Мишель Борт
О фильме: В каждом из нас живет супергерой, нужна лишь толика магии, чтобы он проявил себя. Билли Бэтсон должен прокричать всего лишь одно слово — ШАЗАМ! — чтобы из сообразительного четырнадцатилетнего мальчишки превратиться во вполне себе взрослого супергероя Шазама, а все благодаря древнему волшебнику. В душе он остается ребенком, пусть и во взрослом могучем теле, поэтому поступает так, как поступил бы любой подросток, получивший сверхспособности, — оттягивается на полную катушку в этой подросшей версии себя самого! А умеет ли он летать? А есть ли у него рентгеновское зрение? Может ли он стрелять молниями из рук? А может ли пропустить контрольную по обществознанию? Шазам проверяет границы своих возможностей с бесшабашностью расшалившегося ребенка.
Но ему придется быстро обрести контроль над своими способностями, чтобы сразиться со смертоносными силами зла доктора Таддеуса Сиваны.

Качество: WEBRip 1080p
Формат: MKV
Видео кодек: x,264
Аудио кодек: AC3
Видео: AVC, 1920x1080 (16:9), 23.976 fps, 3 200 kb/s
Аудио: AC-3, 48.0 kHz, 2 ch, 192 kb/s | ENG
Сэмпл | Рекламы нет
Примечание: Видео иногда имеет "поддергивание" и пикселизацию в нескольких сценах

Код:

General
Unique ID                                : 251502666345303736486945713403651730599 (0xBD35A6D09E541536B5D0185106D4ACA7)
Complete name                            : Shazam.2019.WEBRip.1080p.Eng.RusSUB.mkv
Format                                   : Matroska
Format version                           : Version 4
File size                                : 3.09 GiB
Duration                                 : 2 h 10 min
Overall bit rate                         : 3 395 kb/s
Encoded date                             : UTC 2019-05-13 14:09:49
Writing application                      : mkvmerge v8.3.0 ('Over the Horizon') 64bit
Writing library                          : libebml v1.3.1 + libmatroska v1.4.2

Video
ID                                       : 1
Format                                   : AVC
Format/Info                              : Advanced Video Codec
Format profile                           : Baseline@L4
Format settings                          : 1 Ref Frames
Format settings, CABAC                   : No
Format settings, ReFrames                : 1 frame
Codec ID                                 : V_MPEG4/ISO/AVC
Duration                                 : 2 h 10 min
Bit rate                                 : 3 200 kb/s
Width                                    : 1 920 pixels
Height                                   : 1 080 pixels
Display aspect ratio                     : 16:9
Frame rate mode                          : Constant
Frame rate                               : 23.976 (24000/1001) FPS
Color space                              : YUV
Chroma subsampling                       : 4:2:0
Bit depth                                : 8 bits
Scan type                                : Progressive
Bits/(Pixel*Frame)                       : 0.064
Stream size                              : 2.91 GiB (94%)
Writing library                          : x264 core 155 r2901 7d0ff22
Encoding settings                        : cabac=0 / ref=1 / deblock=1:0:0 / analyse=0x1:0x111 / me=hex / subme=2 / psy=1 / psy_rd=1.00:0.00 / mixed_ref=0 / me_range=16 / chroma_me=1 / trellis=0 / 8x8dct=0 / cqm=0 / deadzone=21,11 / fast_pskip=1 / chroma_qp_offset=0 / threads=12 / lookahead_threads=4 / sliced_threads=0 / nr=0 / decimate=1 / interlaced=0 / bluray_compat=0 / constrained_intra=0 / bframes=0 / weightp=0 / keyint=250 / keyint_min=23 / scenecut=40 / intra_refresh=0 / rc_lookahead=10 / rc=abr / mbtree=1 / bitrate=3200 / ratetol=1.0 / qcomp=0.60 / qpmin=0 / qpmax=69 / qpstep=4 / ip_ratio=1.40 / aq=1:1.00
Default                                  : Yes
Forced                                   : No

Audio
ID                                       : 2
Format                                   : AC-3
Format/Info                              : Audio Coding 3
Commercial name                          : Dolby Digital
Codec ID                                 : A_AC3
Duration                                 : 2 h 10 min
Bit rate mode                            : Constant
Bit rate                                 : 192 kb/s
Channel(s)                               : 2 channels
Channel layout                           : L R
Sampling rate                            : 48.0 kHz
Frame rate                               : 31.250 FPS (1536 SPF)
Bit depth                                : 16 bits
Compression mode                         : Lossy
Stream size                              : 179 MiB (6%)
Service kind                             : Complete Main
Default                                  : Yes
Forced                                   : No

Text
ID                                       : 3
Format                                   : UTF-8
Codec ID                                 : S_TEXT/UTF8
Codec ID/Info                            : UTF-8 Plain Text
Duration                                 : 1 h 59 min
Bit rate                                 : 157 b/s
Count of elements                        : 1882
Stream size                              : 139 KiB (0%)
Language                                 : Russian
Default                                  : Yes
Forced                                   : Yes



Скрыт Profile PM
Показать сообщения:    
Ответить на тему

Текущее время: 20-Июл 05:38

Часовой пояс: GMT + 3



Вы не можете начинать темы
Вы не можете отвечать на сообщения
Вы не можете редактировать свои сообщения
Вы не можете удалять свои сообщения
Вы не можете голосовать в опросах
Вы не можете прикреплять файлы к сообщениям
Вы не можете скачивать файлы
Рейтинг торрент трекеров - UpTracker.ru Анализ веб сайта Яндекс.Метрика
службы мониторинга серверов