Loading...
Error

Хеллбой / Hellboy (Нил Маршалл) [2019 г., Фэнтези, боевик, приключения, WEBRip 1080p] MVO | СВ Студия

Ответить на тему
 
Автор Сообщение

Theseus

Стаж: 9 лет 10 месяцев

Сообщений: 4994

Режим только чтение: НЕТ

post 05-Июл-2019 08:52

Quote

Хеллбой / Hellboy

Год выхода: 2019
Страна: США
Жанр: Фэнтези, боевик, приключения
Продолжительность: 02:00:40
Перевод: Профессиональный (многоголосый, закадровый) | [СВ Студия]
Субтитры: Корейские (hardsub)
Режиссер: Нил Маршалл
В ролях: Дэвид Харбор, Милла Йовович, Иэн Макшейн, Саша Лейн, Дэниел Дэ Ким, Томас Хейден Чёрч, Пенелопа Митчелл, Софи Оконедо, Брин Глисон, Алистер Петри, Лайла Морс, Стивен Грэм
О фильме: Близится час битвы Хеллбоя с Кровавой королевой, жаждущей отомстить всему человечеству за века в заточении. Оказавшись в эпицентре столкновения миров людей и монстров, Хеллбою придется пройти через ад, чтобы предотвратить надвигающийся апокалипсис..

Качество: WEBRip 1080p
Формат: MKV
Видео кодек: x.264
Аудио кодек: AC3
Видео: AVC, 1920x800 (2.40:1), 29.970 fps, 6000 kb/s
Аудио #1: AC-3, 48.0 kHz, 2 ch, 192 kb/s | RUS
Аудио #2: AC-3, 48.0 kHz, 2 ch, 192 kb/s | ENG

Код:

General
Unique ID : 231170078292102434244099008014889423183 (0xADE9BCD38B58A83FBAF1E18D11F6914F)
Complete name : Hellboy.2019.1080p.mkv
Format : Matroska
Format version : Version 4 / Version 2
File size : 5.40 GiB
Duration : 2 h 0 min
Overall bit rate : 6 403 kb/s
Movie name : Hellboy.2019.1080p.KORSUB.HDRip.x264.AAC2.0-STUTTERSHIT
Encoded date : UTC 2019-07-04 22:38:34
Writing application : mkvmerge v34.0.0 ('Sight and Seen') 64-bit
Writing library : libebml v1.3.7 + libmatroska v1.5.0
Cover : Yes

Video
ID : 1
Format : AVC
Format/Info : Advanced Video Codec
Format profile : Baseline@L4.1
Format settings : 1 Ref Frames
Format settings, CABAC : No
Format settings, ReFrames : 1 frame
Codec ID : V_MPEG4/ISO/AVC
Duration : 2 h 0 min
Bit rate : 6 000 kb/s
Width : 1 920 pixels
Height : 804 pixels
Display aspect ratio : 2.40:1
Frame rate mode : Constant
Frame rate : 29.970 (30000/1001) FPS
Color space : YUV
Chroma subsampling : 4:2:0
Bit depth : 8 bits
Scan type : Progressive
Bits/(Pixel*Frame) : 0.130
Stream size : 5.07 GiB (94%)
Title : Hellboy.2019.1080p.KORSUB.HDRip.x264.AAC2.0-STUTTERSHIT
Writing library : x264 core 155 r2901 7d0ff22
Encoding settings : cabac=0 / ref=1 / deblock=0:-1:-1 / analyse=0:0 / me=dia / subme=0 / psy=1 / psy_rd=1.00:0.15 / mixed_ref=0 / me_range=16 / chroma_me=1 / trellis=1 / 8x8dct=0 / cqm=0 / deadzone=21,11 / fast_pskip=1 / chroma_qp_offset=-1 / threads=90 / lookahead_threads=6 / sliced_threads=0 / nr=0 / decimate=1 / interlaced=0 / bluray_compat=0 / constrained_intra=0 / bframes=0 / weightp=0 / keyint=250 / keyint_min=25 / scenecut=0 / intra_refresh=0 / rc=abr / mbtree=0 / bitrate=6000 / ratetol=1.0 / qcomp=0.60 / qpmin=0 / qpmax=69 / qpstep=4 / ip_ratio=1.40 / aq=0
Language : English
Default : Yes
Forced : No

Audio #1
ID : 2
Format : AC-3
Format/Info : Audio Coding 3
Codec ID : A_AC3
Duration : 2 h 0 min
Bit rate mode : Constant
Bit rate : 192 kb/s
Channel(s) : 2 channels
Channel positions : Front: L R
Sampling rate : 48.0 kHz
Frame rate : 31.250 FPS (1536 SPF)
Bit depth : 16 bits
Compression mode : Lossy
Delay relative to video : -43 ms
Stream size : 166 MiB (3%)
Language : Russian
Service kind : Complete Main
Default : Yes
Forced : No

Audio #2
ID : 3
Format : AC-3
Format/Info : Audio Coding 3
Codec ID : A_AC3
Duration : 2 h 0 min
Bit rate mode : Constant
Bit rate : 192 kb/s
Channel(s) : 2 channels
Channel positions : Front: L R
Sampling rate : 48.0 kHz
Frame rate : 31.250 FPS (1536 SPF)
Bit depth : 16 bits
Compression mode : Lossy
Delay relative to video : -43 ms
Stream size : 166 MiB (3%)
Language : English
Service kind : Complete Main
Default : No
Forced : No



Скрыт Profile PM
Показать сообщения:    
Ответить на тему

Текущее время: 20-Июл 23:08

Часовой пояс: GMT + 3



Вы не можете начинать темы
Вы не можете отвечать на сообщения
Вы не можете редактировать свои сообщения
Вы не можете удалять свои сообщения
Вы не можете голосовать в опросах
Вы не можете прикреплять файлы к сообщениям
Вы не можете скачивать файлы
Рейтинг торрент трекеров - UpTracker.ru Анализ веб сайта Яндекс.Метрика
службы мониторинга серверов