Loading...
Error

Джон Уик 3 | John Wick: Chapter 3 - Parabellum (Чад Стахелски) [2019 г., Боевик, триллер, криминал, WEBRip 720p] MVO | HDRezka Studio

Ответить на тему
 
Автор Сообщение

Theseus

Стаж: 9 лет

Сообщений: 5003

Режим только чтение: НЕТ

post 18-Июл-2019 18:14

Quote

Джон Уик 3 | John Wick: Chapter 3 - Parabellum

Год выхода: 2019
Страна: США
Жанр: боевик, триллер, криминал
Продолжительность: 02:10:45
Перевод: Профессиональный многоголосый закадровый [HDRezka Studio]
Субтитры: Английские (форс - хардсаб, SDH)

Режиссер: Чад Стахелски
В ролях: Киану Ривз, Холли Берри, Иэн МакШейн, Лоренс Фишбёрн, Марк Дакаскос, Азия Диллон, Лэнс Реддик, Тобиаш Сигал, Анжелика Хьюстон, Саид Тагмауи
О фильме: Суперкиллер Джон Уик после нарушения кодекса тайной гильдии ассасинов получает статус изгоя — экскомьюникадо. За его голову назначена цена в 14 миллионов долларов, и армия самых жестоких профессиональных убийц со всего мира открывает на него кровавую охоту

Качество: WEBRip 720p (John.Wick.Chapter.3.Parabellum.2019.720p.HC.HDRip.x264.AC3)
Формат: MKV
Видео кодек: x.264
Аудио кодек: AC3
Видео: AVC, 1280x544 (2.35:1), 23.976 fps, 3957 kb/s
Аудио 1: AC-3, 48.0 kHz, 2 ch, 192 kb/s | RUS (HDRezka Studio)
Аудио 2: AC-3, 48.0 kHz, 2 ch, 192 kb/s | UKR (Line)
Аудио 3: AC-3, 48.0 kHz, 2 ch, 192 kb/s | ENG (Оригинал)

Сэмпл
Рекламы нет

Код:

General
Unique ID                                : 232433907737019942987029886962848180222 (0xAEDD246DC8A21336B15C771DF64727FE)
Complete name                            : John Wick.Chapter 3.Parabellum.(2019).WEBRip.720p..mkv
Format                                   : Matroska
Format version                           : Version 4
File size                                : 4.14 GiB
Duration                                 : 2 h 10 min
Overall bit rate                         : 4 535 kb/s
Encoded date                             : UTC 2019-07-19 17:03:30
Writing application                      : mkvmerge v8.3.0 ('Over the Horizon') 64bit
Writing library                          : libebml v1.3.1 + libmatroska v1.4.2

Video
ID                                       : 1
Format                                   : AVC
Format/Info                              : Advanced Video Codec
Format profile                           : High@L4
Format settings                          : CABAC / 10 Ref Frames
Format settings, CABAC                   : Yes
Format settings, ReFrames                : 10 frames
Codec ID                                 : V_MPEG4/ISO/AVC
Duration                                 : 2 h 10 min
Bit rate                                 : 3 957 kb/s
Nominal bit rate                         : 4 300 kb/s
Width                                    : 1 280 pixels
Height                                   : 544 pixels
Display aspect ratio                     : 2.35:1
Frame rate mode                          : Constant
Frame rate                               : 23.976 (24000/1001) FPS
Color space                              : YUV
Chroma subsampling                       : 4:2:0
Bit depth                                : 8 bits
Scan type                                : Progressive
Bits/(Pixel*Frame)                       : 0.237
Stream size                              : 3.61 GiB (87%)
Writing library                          : x264 core 157 r2969 d4099dd
Encoding settings                        : cabac=1 / ref=10 / deblock=1:-3:-3 / analyse=0x3:0x133 / me=umh / subme=9 / psy=1 / psy_rd=0.98:0.04 / mixed_ref=1 / me_range=48 / chroma_me=1 / trellis=1 / 8x8dct=1 / cqm=0 / deadzone=21,11 / fast_pskip=1 / chroma_qp_offset=-3 / threads=5 / lookahead_threads=1 / sliced_threads=0 / nr=0 / decimate=1 / interlaced=0 / bluray_compat=0 / constrained_intra=0 / bframes=3 / b_pyramid=2 / b_adapt=2 / b_bias=0 / direct=3 / weightb=1 / open_gop=0 / weightp=2 / keyint=240 / keyint_min=24 / scenecut=40 / intra_refresh=0 / rc_lookahead=40 / rc=cbr / mbtree=1 / bitrate=4300 / ratetol=1.0 / qcomp=0.60 / qpmin=0 / qpmax=69 / qpstep=4 / vbv_maxrate=4300 / vbv_bufsize=3071 / nal_hrd=none / filler=0 / ip_ratio=1.40 / aq=1:1.00
Default                                  : Yes
Forced                                   : No

Audio #1
ID                                       : 2
Format                                   : AC-3
Format/Info                              : Audio Coding 3
Commercial name                          : Dolby Digital
Codec ID                                 : A_AC3
Duration                                 : 2 h 10 min
Bit rate mode                            : Constant
Bit rate                                 : 192 kb/s
Channel(s)                               : 2 channels
Channel layout                           : L R
Sampling rate                            : 48.0 kHz
Frame rate                               : 31.250 FPS (1536 SPF)
Bit depth                                : 16 bits
Compression mode                         : Lossy
Stream size                              : 180 MiB (4%)
Title                                    : MVO | HDRezka Studio
Language                                 : Russian
Service kind                             : Complete Main
Default                                  : Yes
Forced                                   : No

Audio #2
ID                                       : 3
Format                                   : AC-3
Format/Info                              : Audio Coding 3
Commercial name                          : Dolby Digital
Codec ID                                 : A_AC3
Duration                                 : 2 h 10 min
Bit rate mode                            : Constant
Bit rate                                 : 192 kb/s
Channel(s)                               : 2 channels
Channel layout                           : L R
Sampling rate                            : 48.0 kHz
Frame rate                               : 31.250 FPS (1536 SPF)
Bit depth                                : 16 bits
Compression mode                         : Lossy
Stream size                              : 180 MiB (4%)
Title                                    : Line
Language                                 : Ukrainian
Service kind                             : Complete Main
Default                                  : No
Forced                                   : No

Audio #3
ID                                       : 4
Format                                   : AC-3
Format/Info                              : Audio Coding 3
Commercial name                          : Dolby Digital
Codec ID                                 : A_AC3
Duration                                 : 2 h 10 min
Bit rate mode                            : Constant
Bit rate                                 : 192 kb/s
Channel(s)                               : 2 channels
Channel layout                           : L R
Sampling rate                            : 48.0 kHz
Frame rate                               : 31.250 FPS (1536 SPF)
Bit depth                                : 16 bits
Compression mode                         : Lossy
Stream size                              : 180 MiB (4%)
Language                                 : English
Service kind                             : Complete Main
Default                                  : No
Forced                                   : No

Text
ID                                       : 5
Format                                   : UTF-8
Codec ID                                 : S_TEXT/UTF8
Codec ID/Info                            : UTF-8 Plain Text
Duration                                 : 2 h 9 min
Bit rate                                 : 29 b/s
Count of elements                        : 1142
Stream size                              : 27.9 KiB (0%)
Language                                 : English
Default                                  : No
Forced                                   : No



Скрыт Profile PM

Theseus

Стаж: 9 лет

Сообщений: 5003

Режим только чтение: НЕТ

post 19-Июл-2019 21:12 (спустя 1 день 2 часа)

Quote

19.07.19 Замена на более лучший видеоряд
Скрыт Profile PM
Показать сообщения:    
Ответить на тему

Текущее время: 23-Авг 14:17

Часовой пояс: GMT + 3



Вы не можете начинать темы
Вы не можете отвечать на сообщения
Вы не можете редактировать свои сообщения
Вы не можете удалять свои сообщения
Вы не можете голосовать в опросах
Вы не можете прикреплять файлы к сообщениям
Вы не можете скачивать файлы
Рейтинг торрент трекеров - UpTracker.ru Анализ веб сайта Яндекс.Метрика
службы мониторинга серверов