Loading...
Error

Гарет Джонс | Mr. Jones (Агнешка Холланд) [2019 г., триллер, драма, биография, WEBRip] [UKR]

Ответить на тему
 
Автор Сообщение

Theseus

Стаж: 10 лет

Сообщений: 5074

Режим только чтение: НЕТ

post 11-Янв-2020 22:20

Quote

Гарет Джонс | Mr. Jones

Год выхода: 2019
Страна: Польша, Великобритания, Украина
Жанр: триллер, драма, биография
Продолжительность: 01:59:00
Перевод Украинский дубляж
Субтитры: украинские (вшитые/форс.)
Режиссер: Агнешка Холланд
В ролях: Джеймс Нортон, Ванесса Кирби, Питер Сарсгаард, Джозеф Моул, Кеннет Крэнэм, Селин Джонс, Кшиштоф Печиньский, Фенелла Вулгар, Мартин Бишоп, Джон Эдмондсон
О фильме: В 1930-е годы в СССР приезжает молодой журналист из Уэльса Гарет Джонс, который мечтает взять интервью у Сталина. Став свидетелем жестоких репрессий и народных бедствий, Гарет с угрозой для жизни пишет статью о тёмной стороне советской утопии. Пока спецслужбы и сторонники Сталина ищут способ, как заставить его замолчать, начинающий писатель Джордж Оруэлл под впечатлением от его истории задумывает повесть «Скотный двор».

Качество: WEBRip
Формат: AVI
Видео кодек: XviD
Аудио кодек: AC3
Видео: MPEG4, XviD, 720x304 (2.35:1), 24.000 fps, 1 351 kb/s
Аудио: AC3, 48.0 kHz, 6 ch, 384 kb/s | UKR (DUB)
Рекламы нет | Сэмпл

Код:

General
Complete name                            : Mr.Jones.2019.WEBRip.UKR.avi
Format                                   : AVI
Format/Info                              : Audio Video Interleave
File size                                : 1.45 GiB
Duration                                 : 1 h 59 min
Overall bit rate                         : 1 744 kb/s
Writing application                      : VirtualDubMod 1.5.10.3 (build 2550/release)
Writing library                          : VirtualDubMod build 2550/release

Video
ID                                       : 0
Format                                   : MPEG-4 Visual
Format profile                           : Advanced Simple@L5
Format settings                          : BVOP1
Format settings, BVOP                    : 1
Format settings, QPel                    : No
Format settings, GMC                     : No warppoints
Format settings, Matrix                  : Default (MPEG)
Codec ID                                 : XVID
Codec ID/Hint                            : XviD
Duration                                 : 1 h 59 min
Bit rate                                 : 1 351 kb/s
Width                                    : 720 pixels
Height                                   : 304 pixels
Display aspect ratio                     : 2.35:1
Frame rate                               : 24.000 FPS
Color space                              : YUV
Chroma subsampling                       : 4:2:0
Bit depth                                : 8 bits
Scan type                                : Progressive
Compression mode                         : Lossy
Bits/(Pixel*Frame)                       : 0.257
Stream size                              : 1.12 GiB (77%)
Writing library                          : XviD 67

Audio
ID                                       : 1
Format                                   : AC-3
Format/Info                              : Audio Coding 3
Commercial name                          : Dolby Digital
Codec ID                                 : 2000
Duration                                 : 1 h 59 min
Bit rate mode                            : Constant
Bit rate                                 : 384 kb/s
Channel(s)                               : 6 channels
Channel layout                           : L R C LFE Ls Rs
Sampling rate                            : 48.0 kHz
Frame rate                               : 31.250 FPS (1536 SPF)
Bit depth                                : 16 bits
Compression mode                         : Lossy
Stream size                              : 327 MiB (22%)
Alignment                                : Split accross interleaves
Interleave, duration                     : 42  ms (1.00 video frame)
Interleave, preload duration             : 500  ms
Service kind                             : Complete Main


Скрыт Profile PM
Показать сообщения:    
Ответить на тему

Текущее время: 05-Апр 09:53

Часовой пояс: GMT + 3



Вы не можете начинать темы
Вы не можете отвечать на сообщения
Вы не можете редактировать свои сообщения
Вы не можете удалять свои сообщения
Вы не можете голосовать в опросах
Вы не можете прикреплять файлы к сообщениям
Вы не можете скачивать файлы
Рейтинг торрент трекеров - UpTracker.ru Анализ веб сайта Яндекс.Метрика
службы мониторинга серверов