Loading...
Error

Звёздные войны: Скайуокер. Восход / Star Wars: Episode IX - The Rise of Skywalker (Джей Джей Абрамс) [2019 г., фантастика, фэнтези, боевик, приключения, BDRip 1080p] [HEVC] DUB

Ответить на тему
 
Автор Сообщение

Theseus

Стаж: 10 лет

Сообщений: 5073

Режим только чтение: НЕТ

post 16-Мар-2020 17:09

Quote

Звёздные войны: Скайуокер. Восход / Star Wars: Episode IX - The Rise of Skywalker

Год выхода: 2019
Страна: США
Жанр: фантастика, фэнтези, боевик, приключения
Продолжительность: 02:21:53
Перевод: Профессиональный дублированный [онлайн кинотеатр]
Субтитры: Русские, английские
Режиссер: Джей Джей Абрамс
В ролях: Дэйзи Ридли, Адам Драйвер, Кэрри Фишер, Марк Хэмилл, Джон Бойега, Оскар Айзек, Энтони Дэниелс, Наоми Аки, Донал Глисон, Ричард Э. Грант, Лупита Нионго, Кери Рассел, Йонас Суотамо, Келли Мари Трэн, Иен Макдермид, Билли Ди Уильямс

О фильме: Фильм завершает невероятную историю семьи Скайуокеров, длящуюся уже более сорока лет, и обещает дать ответы на все загадки из предыдущих серий. Зрителя ожидают старые и новые герои, уникальные миры, увлекательные путешествия на край Галактики и грандиозный финал фантастической саги.


Качество: BDRip-HEVC 1080p
Формат: MKV
Видео кодек: H.265
Аудио кодек: AC3
Видео: HEVC, 1920x800 (2.40:1), 23.976 fps, 6 947 kb/s
Аудио 1: AC3, 48.0 kHz, 2 ch, 192 kb/s | RUS
Аудио 2: AC3, 48.0 kHz, 6 ch, 640 kb/s | ENG
Сэмпл

Код:

Общее
Уникальный идентификатор                 : 205988554292613092612966892633324394929 (0x9AF7F3D678944BD785F1E223FACE19B1)
Полное имя                               : Star Wars Episode IX The Rise of Skywalker(2019).1080p.HEVC.mkv
Формат                                   : Matroska
Версия формата                           : Version 4
Размер файла                             : 7,71 Гбайт
Продолжительность                        : 2 ч. 21 м.
Общий поток                              : 7781 Кбит/сек
Дата кодирования                         : UTC 2020-03-16 12:48:31
Программа кодирования                    : mkvmerge v8.3.0 ('Over the Horizon') 64bit
Библиотека кодирования                   : libebml v1.3.1 + libmatroska v1.4.2

Видео
Идентификатор                            : 1
Формат                                   : HEVC
Формат/Информация                        : High Efficiency Video Coding
Профиль формата                          : Main 10@L4.1@High
Идентификатор кодека                     : V_MPEGH/ISO/HEVC
Продолжительность                        : 2 ч. 21 м.
Битрейт                                  : 6947 Кбит/сек
Ширина                                   : 1920 пикселей
Высота                                   : 800 пикселей
Соотношение сторон                       : 2,40:1
Режим частоты кадров                     : Постоянный
Частота кадров                           : 23,976 (24000/1001) кадра/сек
Цветовое пространство                    : YUV
Субдискретизация насыщенности            : 4:2:0
Битовая глубина                          : 10 бит
Бит/(Пиксели*Кадры)                      : 0.189
Размер потока                            : 6,89 Гбайт (89%)
Язык                                     : English
Default                                  : Да
Forced                                   : Нет
Цветовой диапазон                        : Limited
Основные цвета                           : BT.709
Характеристики трансфера                 : BT.709
Коэффициенты матрицы                     : BT.709

Аудио #1
Идентификатор                            : 2
Формат                                   : AC-3
Формат/Информация                        : Audio Coding 3
Коммерческое название                    : Dolby Digital
Идентификатор кодека                     : A_AC3
Продолжительность                        : 2 ч. 21 м.
Вид битрейта                             : Постоянный
Битрейт                                  : 192 Кбит/сек
Каналы                                   : 2 канала
Channel layout                           : L R
Частота                                  : 48,0 КГц
Частота кадров                           : 31,250 кадров/сек (1536 SPF)
Битовая глубина                          : 16 бит
Метод сжатия                             : С потерями
Размер потока                            : 195 Мбайт (2%)
Язык                                     : Russian
ServiceKind/String                       : Complete Main
Default                                  : Да
Forced                                   : Нет

Аудио #2
Идентификатор                            : 3
Формат                                   : AC-3
Формат/Информация                        : Audio Coding 3
Коммерческое название                    : Dolby Digital
Идентификатор кодека                     : A_AC3
Продолжительность                        : 2 ч. 21 м.
Вид битрейта                             : Постоянный
Битрейт                                  : 640 Кбит/сек
Каналы                                   : 6 каналов
Channel layout                           : L R C LFE Ls Rs
Частота                                  : 48,0 КГц
Частота кадров                           : 31,250 кадров/сек (1536 SPF)
Битовая глубина                          : 16 бит
Метод сжатия                             : С потерями
Размер потока                            : 649 Мбайт (8%)
Язык                                     : English
ServiceKind/String                       : Complete Main
Default                                  : Нет
Forced                                   : Нет

Текст #1
Идентификатор                            : 4
Формат                                   : UTF-8
Идентификатор кодека                     : S_TEXT/UTF8
Идентификатор кодека/Информация          : UTF-8 Plain Text
Продолжительность                        : 59 с. 268 мс.
Битрейт                                  : 129 бит/сек
ElementCount                             : 9
Размер потока                            : 962 байт (0%)
Заголовок                                : Forced
Язык                                     : Russian
Default                                  : Да
Forced                                   : Да

Текст #2
Идентификатор                            : 5
Формат                                   : UTF-8
Идентификатор кодека                     : S_TEXT/UTF8
Идентификатор кодека/Информация          : UTF-8 Plain Text
Продолжительность                        : 2 ч. 21 м.
Битрейт                                  : 58 бит/сек
ElementCount                             : 1442
Размер потока                            : 60,8 Кбайт (0%)
Заголовок                                : Full
Язык                                     : Russian
Default                                  : Нет
Forced                                   : Нет

Текст #3
Идентификатор                            : 6
Формат                                   : UTF-8
Идентификатор кодека                     : S_TEXT/UTF8
Идентификатор кодека/Информация          : UTF-8 Plain Text
Продолжительность                        : 2 ч. 11 м.
Битрейт                                  : 77 бит/сек
ElementCount                             : 1772
Размер потока                            : 74,7 Кбайт (0%)
Заголовок                                : SDH
Язык                                     : Russian
Default                                  : Нет
Forced                                   : Нет

Текст #4
Идентификатор                            : 7
Формат                                   : UTF-8
Идентификатор кодека                     : S_TEXT/UTF8
Идентификатор кодека/Информация          : UTF-8 Plain Text
Продолжительность                        : 2 ч. 11 м.
Битрейт                                  : 48 бит/сек
ElementCount                             : 1895
Размер потока                            : 47,1 Кбайт (0%)
Язык                                     : English
Default                                  : Нет
Forced                                   : Нет

Меню
00:00:00.000                             : :Chapter 1
00:00:09.217                             : :Chapter 2
00:03:47.435                             : :Chapter 3
00:03:47.936                             : :Chapter 4
00:06:42.485                             : :Chapter 5
00:08:26.214                             : :Chapter 6
00:10:04.896                             : :Chapter 7
00:12:48.267                             : :Chapter 8
00:13:54.125                             : :Chapter 9
00:15:17.541                             : :Chapter 10
00:17:13.282                             : :Chapter 11
00:19:24.621                             : :Chapter 12
00:21:28.704                             : :Chapter 13
00:25:27.818                             : :Chapter 14
00:27:15.008                             : :Chapter 15
00:30:41.673                             : :Chapter 16
00:35:49.188                             : :Chapter 17
00:41:37.787                             : :Chapter 18
00:43:15.384                             : :Chapter 19
00:45:28.475                             : :Chapter 20
00:48:24.401                             : :Chapter 21
00:54:37.691                             : :Chapter 22
00:58:49.317                             : :Chapter 23
01:02:54.896                             : :Chapter 24
01:06:23.104                             : :Chapter 25
01:09:54.732                             : :Chapter 26
01:13:07.508                             : :Chapter 27
01:18:23.740                             : :Chapter 28
01:23:41.349                             : :Chapter 29
01:27:02.675                             : :Chapter 30
01:30:23.251                             : :Chapter 31
01:35:00.945                             : :Chapter 32
01:38:48.005                             : :Chapter 33
01:40:35.446                             : :Chapter 34
01:43:03.260                             : :Chapter 35
01:45:27.988                             : :Chapter 36
01:48:47.813                             : :Chapter 37
01:53:27.759                             : :Chapter 38
01:55:30.882                             : :Chapter 39
01:59:02.885                             : :Chapter 40
02:01:37.874                             : :Chapter 41
02:05:20.554                             : :Chapter 42
02:09:42.358                             : :Chapter 43
02:12:25.354                             : :Chapter 44



Скрыт Profile PM
Показать сообщения:    
Ответить на тему

Текущее время: 30-Мар 23:17

Часовой пояс: GMT + 3



Вы не можете начинать темы
Вы не можете отвечать на сообщения
Вы не можете редактировать свои сообщения
Вы не можете удалять свои сообщения
Вы не можете голосовать в опросах
Вы не можете прикреплять файлы к сообщениям
Вы не можете скачивать файлы
Рейтинг торрент трекеров - UpTracker.ru Анализ веб сайта Яндекс.Метрика
службы мониторинга серверов