Loading...
Error

Сквозь снег / Snowpiercer ( Джеймс Хоуз, Сэм Миллер, Хелен Шейвер ) / Сезон: 1 / Серии: 1 - 2 из 10 [2020, фантастика, боевик, триллер, драма, UHD WEB-DL 2160p] [HEVC] DUB [Пифагор] | MVO [LostFilm]

Ответить на тему
 
Автор Сообщение

Theseus

Стаж: 10 лет

Сообщений: 5109

Режим только чтение: НЕТ

post 31-Май-2020 14:27

Quote

Сквозь снег / Snowpiercer

Год выпуска: 2020
Страна: США
Жанр: фантастика, боевик, триллер, драма
Продолжительность: 00:52:43
Сезоны / серии: 1 сезон / 1 - 2 серия из 10
Перевод 1: Профессиональный (полное дублирование) [Пифагор] | по заказу Netflix
Перевод 2: Профессиональный многоголосый [LostFilm]
Субтитры: Russian (Forced, Full), English (Full, SDH), Arabic, Czech, Danish, German, Greek, Spanish, Spanish (European), Finnish, French, Hebrew, Hindi, Hungarian, Indonesian, Italian, Japanese, Korean, Norwegian, Dutch, Polish, Portuguese, Portuguese (Brazilian), Romanian, Swedish, Thai, Turkish, Vietnamese, Chinese, Chinese (Traditional)
Режиссёр: Джеймс Хоуз, Сэм Миллер, Хелен Шейвер
В ролях: Дженнифер Коннелли, Давид Диггс, Мики Самнер, Шейла Ванд, Лена Холл, Элисон Райт, Иддо Голдберг, Аарон Гленнэйн, Карин Коновал, Анналиса Бассо
Описание: Мир претерпел техногенную катастрофу, которая привела к новому ледниковому периоду. По трансевразийской магистрали мчится гигантский поезд, заполненный выжившими. В поезде царит строгая классовая иерархия: от правящей элиты в первых вагонах до угнетённых в хвосте.

Качество: WEB-DL 2160p
Формат: MKV
Видео кодек: H.265
Аудио кодек: E-AC3
Видео: HEVC, 3840x2160 (16:9), 23.976 fps, 23,7 Mbps, 10 bit
Аудио 1: E-AC3, 48.0 kHz, 6 ch, 640 kb/s | RUS [DUB (Пифагор)]
Аудио 2: E-AC3, 48.0 kHz, 6 ch, 768 kb/s | RUS [MVO (LostFilm)]
Аудио 3: E-AC3, 48.0 kHz, 6 ch, 768 kb/s | ENG
Рекламы нет | Сэмпл

Код:

General
Unique ID : 231972993679844619703522084364224865443 (0xAE845F9C7F6D7D6B54BC81C4ECE4A4A3)
Complete name : Snowpiercer.S01E02.2160p.NF.WEBRip.DD+5.1.x265-CasStudio.mkv
Format : Matroska
Format version : Version 4
File size : 8.49 GiB
Duration : 46 min 51 s
Overall bit rate : 25.9 Mb/s
Movie name : Snowpiercer - S01E02 Prepare to Brace
Encoded date : UTC 2020-05-28 16:24:06
Writing application : mkvmerge v46.0.0 ('No Deeper Escape') 64-bit
Writing library : libebml v1.3.10 + libmatroska v1.5.2

Video
ID : 1
Format : HEVC
Format/Info : High Efficiency Video Coding
Format profile : Main 10@L5.1@High
Codec ID : V_MPEGH/ISO/HEVC
Duration : 46 min 51 s
Bit rate : 23.7 Mb/s
Width : 3 840 pixels
Height : 2 160 pixels
Display aspect ratio : 16:9
Frame rate mode : Constant
Frame rate : 23.976 (24000/1001) FPS
Color space : YUV
Chroma subsampling : 4:2:0
Bit depth : 10 bits
Bits/(Pixel*Frame) : 0.119
Stream size : 7.77 GiB (92%)
Writing library : x265 3.3+10-g08d895bb6:[Windows][GCC 10.0.1][64 bit] 10bit
Encoding settings : cpuid=1111039 / frame-threads=4 / numa-pools=24 / wpp / no-pmode / no-pme / no-psnr / no-ssim / log-level=2 / input-csp=1 / input-res=3840x2160 / interlace=0 / total-frames=67403 / level-idc=51 / high-tier=1 / uhd-bd=0 / ref=5 / no-allow-non-conformance / repeat-headers / annexb / aud / hrd / info / hash=0 / no-temporal-layers / open-gop / min-keyint=23 / keyint=250 / gop-lookahead=0 / bframes=8 / b-adapt=2 / b-pyramid / bframe-bias=0 / rc-lookahead=40 / lookahead-slices=8 / scenecut=40 / hist-scenecut=0 / radl=0 / no-splice / no-intra-refresh / ctu=64 / min-cu-size=8 / no-rect / no-amp / max-tu-size=32 / tu-inter-depth=4 / tu-intra-depth=4 / limit-tu=4 / rdoq-level=0 / dynamic-rd=0.00 / no-ssim-rd / signhide / no-tskip / nr-intra=0 / nr-inter=0 / no-constrained-intra / strong-intra-smoothing / max-merge=4 / limit-refs=1 / no-limit-modes / me=1 / subme=5 / merange=57 / temporal-mvp / no-frame-dup / no-hme / weightp / weightb / no-analyze-src-pics / deblock=-3:-3 / no-sao / no-sao-non-deblock / rd=4 / selective-sao=0 / early-skip / rskip / no-fast-intra / no-tskip-fast / no-cu-lossless / b-intra / no-splitrd-skip / rdpenalty=0 / psy-rd=2.00 / psy-rdoq=0.00 / no-rd-refine / no-lossless / cbqpoffs=0 / crqpoffs=0 / rc=crf / crf=19.0 / qcomp=0.60 / qpstep=4 / stats-write=0 / stats-read=0 / vbv-maxrate=160000 / vbv-bufsize=160000 / vbv-init=0.9 / crf-max=0.0 / crf-min=0.0 / ipratio=1.30 / pbratio=1.20 / aq-mode=1 / aq-strength=0.85 / no-cutree / zone-count=0 / no-strict-cbr / qg-size=32 / no-rc-grain / qpmax=69 / qpmin=0 / no-const-vbv / sar=1 / overscan=0 / videoformat=5 / range=0 / colorprim=1 / transfer=1 / colormatrix=1 / chromaloc=0 / display-window=0 / cll=0,0 / min-luma=0 / max-luma=1023 / log2-max-poc-lsb=8 / vui-timing-info / vui-hrd-info / slices=1 / no-opt-qp-pps / no-opt-ref-list-length-pps / no-multi-pass-opt-rps / scenecut-bias=0.05 / hist-threshold=0.01 / no-opt-cu-delta-qp / no-aq-motion / no-hdr10 / no-hdr10-opt / no-dhdr10-opt / no-idr-recovery-sei / analysis-reuse-level=0 / analysis-save-reuse-level=0 / analysis-load-reuse-level=0 / scale-factor=0 / refine-intra=0 / refine-inter=0 / refine-mv=1 / refine-ctu-distortion=0 / no-limit-sao / ctu-info=0 / no-lowpass-dct / refine-analysis-type=0 / copy-pic=1 / max-ausize-factor=1.0 / no-dynamic-refine / no-single-sei / no-hevc-aq / no-svt / no-field / qp-adaptation-range=1.00 / no-scenecut-aware-qpconformance-window-offsets / right=0 / bottom=0 / decoder-max-rate=0
Language : English
Default : Yes
Forced : No
Color range : Limited
Color primaries : BT.709
Transfer characteristics : BT.709
Matrix coefficients : BT.709

Audio #1
ID : 2
Format : E-AC-3
Format/Info : Enhanced AC-3
Commercial name : Dolby Digital Plus
Codec ID : A_EAC3
Duration : 46 min 51 s
Bit rate mode : Constant
Bit rate : 640 kb/s
Channel(s) : 6 channels
Channel layout : L R C LFE Ls Rs
Sampling rate : 48.0 kHz
Frame rate : 31.250 FPS (1536 SPF)
Compression mode : Lossy
Stream size : 215 MiB (2%)
Title : DUB
Language : Russian
Service kind : Complete Main
Default : Yes
Forced : No

Audio #2
ID : 3
Format : E-AC-3
Format/Info : Enhanced AC-3
Commercial name : Dolby Digital Plus
Codec ID : A_EAC3
Duration : 46 min 51 s
Bit rate mode : Constant
Bit rate : 768 kb/s
Channel(s) : 6 channels
Channel layout : L R C LFE Ls Rs
Sampling rate : 48.0 kHz
Frame rate : 31.250 FPS (1536 SPF)
Compression mode : Lossy
Stream size : 257 MiB (3%)
Title : Lostfim
Language : Russian
Service kind : Complete Main
Default : No
Forced : No

Audio #3
ID : 4
Format : E-AC-3 JOC
Format/Info : Enhanced AC-3 with Joint Object Coding
Commercial name : Dolby Digital Plus with Dolby Atmos
Codec ID : A_EAC3
Duration : 46 min 51 s
Bit rate mode : Constant
Bit rate : 768 kb/s
Channel(s) : 6 channels
Channel layout : L R C LFE Ls Rs
Sampling rate : 48.0 kHz
Frame rate : 31.250 FPS (1536 SPF)
Compression mode : Lossy
Stream size : 257 MiB (3%)
Title : Original
Language : English
Service kind : Complete Main
Default : No
Forced : No
Complexity index : 16
Number of dynamic objects : 15
Bed channel count : 1 channel
Bed channel configuration : LFE

Text #1
ID : 5
Format : UTF-8
Codec ID : S_TEXT/UTF8
Codec ID/Info : UTF-8 Plain Text
Duration : 45 min 29 s
Bit rate : 3 b/s
Count of elements : 22
Stream size : 1.32 KiB (0%)
Title : Forced
Language : Russian
Default : Yes
Forced : No

Text #2
ID : 6
Format : UTF-8
Codec ID : S_TEXT/UTF8
Codec ID/Info : UTF-8 Plain Text
Duration : 44 min 49 s
Bit rate : 57 b/s
Count of elements : 525
Stream size : 18.8 KiB (0%)
Language : English
Default : No
Forced : No

Text #3
ID : 7
Format : UTF-8
Codec ID : S_TEXT/UTF8
Codec ID/Info : UTF-8 Plain Text
Duration : 45 min 0 s
Bit rate : 62 b/s
Count of elements : 578
Stream size : 20.6 KiB (0%)
Title : SDH
Language : English
Default : No
Forced : No

Text #4
ID : 8
Format : UTF-8
Codec ID : S_TEXT/UTF8
Codec ID/Info : UTF-8 Plain Text
Duration : 45 min 29 s
Bit rate : 91 b/s
Count of elements : 524
Stream size : 30.6 KiB (0%)
Language : Arabic
Default : No
Forced : No

Text #5
ID : 9
Format : UTF-8
Codec ID : S_TEXT/UTF8
Codec ID/Info : UTF-8 Plain Text
Duration : 45 min 29 s
Bit rate : 50 b/s
Count of elements : 523
Stream size : 16.8 KiB (0%)
Language : Czech
Default : No
Forced : No

Text #6
ID : 10
Format : UTF-8
Codec ID : S_TEXT/UTF8
Codec ID/Info : UTF-8 Plain Text
Duration : 45 min 29 s
Bit rate : 48 b/s
Count of elements : 523
Stream size : 16.1 KiB (0%)
Language : Danish
Default : No
Forced : No

Text #7
ID : 11
Format : UTF-8
Codec ID : S_TEXT/UTF8
Codec ID/Info : UTF-8 Plain Text
Duration : 45 min 29 s
Bit rate : 50 b/s
Count of elements : 521
Stream size : 16.8 KiB (0%)
Language : German
Default : No
Forced : No

Text #8
ID : 12
Format : UTF-8
Codec ID : S_TEXT/UTF8
Codec ID/Info : UTF-8 Plain Text
Duration : 45 min 29 s
Bit rate : 88 b/s
Count of elements : 523
Stream size : 29.5 KiB (0%)
Language : Greek
Default : No
Forced : No

Text #9
ID : 13
Format : UTF-8
Codec ID : S_TEXT/UTF8
Codec ID/Info : UTF-8 Plain Text
Duration : 45 min 29 s
Bit rate : 55 b/s
Count of elements : 523
Stream size : 18.3 KiB (0%)
Language : Spanish
Default : No
Forced : No

Text #10
ID : 14
Format : UTF-8
Codec ID : S_TEXT/UTF8
Codec ID/Info : UTF-8 Plain Text
Duration : 45 min 29 s
Bit rate : 54 b/s
Count of elements : 521
Stream size : 18.0 KiB (0%)
Title : European
Language : Spanish
Default : No
Forced : No

Text #11
ID : 15
Format : UTF-8
Codec ID : S_TEXT/UTF8
Codec ID/Info : UTF-8 Plain Text
Duration : 45 min 29 s
Bit rate : 48 b/s
Count of elements : 519
Stream size : 16.1 KiB (0%)
Language : Finnish
Default : No
Forced : No

Text #12
ID : 16
Format : UTF-8
Codec ID : S_TEXT/UTF8
Codec ID/Info : UTF-8 Plain Text
Duration : 45 min 29 s
Bit rate : 55 b/s
Count of elements : 519
Stream size : 18.4 KiB (0%)
Language : French
Default : No
Forced : No

Text #13
ID : 17
Format : UTF-8
Codec ID : S_TEXT/UTF8
Codec ID/Info : UTF-8 Plain Text
Duration : 45 min 29 s
Bit rate : 79 b/s
Count of elements : 524
Stream size : 26.4 KiB (0%)
Language : Hebrew
Default : No
Forced : No

Text #14
ID : 18
Format : UTF-8
Codec ID : S_TEXT/UTF8
Codec ID/Info : UTF-8 Plain Text
Duration : 45 min 29 s
Bit rate : 140 b/s
Count of elements : 524
Stream size : 46.8 KiB (0%)
Language : Hindi
Default : No
Forced : No

Text #15
ID : 19
Format : UTF-8
Codec ID : S_TEXT/UTF8
Codec ID/Info : UTF-8 Plain Text
Duration : 45 min 29 s
Bit rate : 53 b/s
Count of elements : 521
Stream size : 17.8 KiB (0%)
Language : Hungarian
Default : No
Forced : No

Text #16
ID : 20
Format : UTF-8
Codec ID : S_TEXT/UTF8
Codec ID/Info : UTF-8 Plain Text
Duration : 45 min 29 s
Bit rate : 52 b/s
Count of elements : 523
Stream size : 17.5 KiB (0%)
Language : Indonesian
Default : No
Forced : No

Text #17
ID : 21
Format : UTF-8
Codec ID : S_TEXT/UTF8
Codec ID/Info : UTF-8 Plain Text
Duration : 45 min 29 s
Bit rate : 53 b/s
Count of elements : 523
Stream size : 17.9 KiB (0%)
Language : Italian
Default : No
Forced : No

Text #18
ID : 22
Format : UTF-8
Codec ID : S_TEXT/UTF8
Codec ID/Info : UTF-8 Plain Text
Duration : 45 min 29 s
Bit rate : 49 b/s
Count of elements : 514
Stream size : 16.4 KiB (0%)
Language : Japanese
Default : No
Forced : No

Text #19
ID : 23
Format : UTF-8
Codec ID : S_TEXT/UTF8
Codec ID/Info : UTF-8 Plain Text
Duration : 45 min 29 s
Bit rate : 63 b/s
Count of elements : 523
Stream size : 21.2 KiB (0%)
Language : Korean
Default : No
Forced : No

Text #20
ID : 24
Format : UTF-8
Codec ID : S_TEXT/UTF8
Codec ID/Info : UTF-8 Plain Text
Duration : 45 min 29 s
Bit rate : 49 b/s
Count of elements : 523
Stream size : 16.5 KiB (0%)
Language : Norwegian Bokmal
Default : No
Forced : No

Text #21
ID : 25
Format : UTF-8
Codec ID : S_TEXT/UTF8
Codec ID/Info : UTF-8 Plain Text
Duration : 45 min 29 s
Bit rate : 49 b/s
Count of elements : 515
Stream size : 16.4 KiB (0%)
Language : Dutch
Default : No
Forced : No

Text #22
ID : 26
Format : UTF-8
Codec ID : S_TEXT/UTF8
Codec ID/Info : UTF-8 Plain Text
Duration : 45 min 29 s
Bit rate : 47 b/s
Count of elements : 519
Stream size : 15.9 KiB (0%)
Language : Polish
Default : No
Forced : No

Text #23
ID : 27
Format : UTF-8
Codec ID : S_TEXT/UTF8
Codec ID/Info : UTF-8 Plain Text
Duration : 45 min 29 s
Bit rate : 56 b/s
Count of elements : 523
Stream size : 18.7 KiB (0%)
Language : Portuguese
Default : No
Forced : No

Text #24
ID : 28
Format : UTF-8
Codec ID : S_TEXT/UTF8
Codec ID/Info : UTF-8 Plain Text
Duration : 45 min 29 s
Bit rate : 53 b/s
Count of elements : 523
Stream size : 17.7 KiB (0%)
Title : Brazilian
Language : Portuguese
Default : No
Forced : No

Text #25
ID : 29
Format : UTF-8
Codec ID : S_TEXT/UTF8
Codec ID/Info : UTF-8 Plain Text
Duration : 45 min 29 s
Bit rate : 59 b/s
Count of elements : 523
Stream size : 20.0 KiB (0%)
Language : Romanian
Default : No
Forced : No

Text #26
ID : 30
Format : UTF-8
Codec ID : S_TEXT/UTF8
Codec ID/Info : UTF-8 Plain Text
Duration : 45 min 29 s
Bit rate : 85 b/s
Count of elements : 524
Stream size : 28.5 KiB (0%)
Language : Russian
Default : No
Forced : No

Text #27
ID : 31
Format : UTF-8
Codec ID : S_TEXT/UTF8
Codec ID/Info : UTF-8 Plain Text
Duration : 45 min 29 s
Bit rate : 52 b/s
Count of elements : 523
Stream size : 17.6 KiB (0%)
Language : Swedish
Default : No
Forced : No

Text #28
ID : 32
Format : UTF-8
Codec ID : S_TEXT/UTF8
Codec ID/Info : UTF-8 Plain Text
Duration : 45 min 29 s
Bit rate : 147 b/s
Count of elements : 524
Stream size : 49.1 KiB (0%)
Language : Thai
Default : No
Forced : No

Text #29
ID : 33
Format : UTF-8
Codec ID : S_TEXT/UTF8
Codec ID/Info : UTF-8 Plain Text
Duration : 45 min 29 s
Bit rate : 55 b/s
Count of elements : 522
Stream size : 18.4 KiB (0%)
Language : Turkish
Default : No
Forced : No

Text #30
ID : 34
Format : UTF-8
Codec ID : S_TEXT/UTF8
Codec ID/Info : UTF-8 Plain Text
Duration : 45 min 29 s
Bit rate : 77 b/s
Count of elements : 522
Stream size : 25.9 KiB (0%)
Language : Vietnamese
Default : No
Forced : No

Text #31
ID : 35
Format : UTF-8
Codec ID : S_TEXT/UTF8
Codec ID/Info : UTF-8 Plain Text
Duration : 45 min 29 s
Bit rate : 58 b/s
Count of elements : 523
Stream size : 19.4 KiB (0%)
Title : Simplified
Language : Chinese
Default : No
Forced : No

Text #32
ID : 36
Format : UTF-8
Codec ID : S_TEXT/UTF8
Codec ID/Info : UTF-8 Plain Text
Duration : 45 min 29 s
Bit rate : 49 b/s
Count of elements : 523
Stream size : 16.6 KiB (0%)
Title : Traditional
Language : Chinese
Default : No
Forced : No
Внимание! Раздача ведётся путём добавления новых серий; при каждом добавлении создётся новый торрент. Чтобы начать докачку новой серии, пользователям необходимо сделать следующее:

(1) остановить скачивание,
(2) удалить старый торрент у себя из клиента (старые серии удалять не надо),
(3) скачать новый торрент и запустить его у себя в клиенте вместо старого, при этом указать клиенту путь в старую папку куда и должно происходить скачивание новых серий.

Ваш клиент при этом должен произвести хеширование (проверку) старой папки (если не производит сам - помогите ему сделать это), и будет докачивать только те серии которых у вас ещё нет. Старые серии при этом не удаляются, а продолжают раздаваться!

Eсли вы уже удалили старые серии, то предотвратить повторную закачку старых серий можно, отжав галочку в соответсвующих местах при запуске нового торрента. По возможности, желательно не удалять старые серии как можно дольше чтобы релизёр не столько продолжал раздавать старые серии, а смог сконцентрироваться на новых.


Скрыт Profile PM
Показать сообщения:    
Ответить на тему

Текущее время: 07-Июл 06:33

Часовой пояс: GMT + 3



Вы не можете начинать темы
Вы не можете отвечать на сообщения
Вы не можете редактировать свои сообщения
Вы не можете удалять свои сообщения
Вы не можете голосовать в опросах
Вы не можете прикреплять файлы к сообщениям
Вы не можете скачивать файлы
Рейтинг торрент трекеров - UpTracker.ru Анализ веб сайта Яндекс.Метрика
службы мониторинга серверов