Loading...
Error

Тьма / Dark (3 Сезон / 1-8 Серия из 8) (Баран бо Одар) [2020 г, триллер, драма, криминал, детектив, фантастика, WEBRip 2160p] [HEVC] [NewStudio]

Ответить на тему
 
Автор Сообщение

Theseus

Стаж: 11 лет

Сообщений: 4756

Режим только чтение: НЕТ

post 06-Июл-2020 14:01

Quote

Тьма / Dark

Год выпуска: 2020
Страна: Германия, США
Жанр: Триллер, фантастика, драма, криминал, детектив
Продолжительность: 01:02:00
Сезоны / серии: 3 сезон / 1 - 8 серия из 8
Перевод: Профессиональный (многоголосый закадровый) | NewStudio
Субтитры: Русские (Форс., полные), английские и другие
Режиссёр: Баран бо Одар
В ролях: Оливер Мазуччи, Каролина Эйхгорн, Йордис Трибель, Луис Хофманн, Майя Шёне, Штефан Кампвирт, Андреас Пичман, Дебора Кауфман, Татя Зайбт
Описание: История четырёх семей, живущих спокойной и размеренной жизнью в маленьком немецком городке. Видимая идиллия рушится, когда бесследно исчезают двое детей и воскресают тёмные тайны прошлого.
Качество: WEBRip 2160p
Формат: MKV
Видео кодек: H.265
Аудио кодек: AC3, E-AC3
Видео: HEVC, 3840x1920 (2.000), 24.000 fps, 14.8 Mb/s
Аудио 1: AC-3, 48.0 kHz, 6 ch, 384 kb/s | Rus
Аудио 2: E-AC3, 48.0 kHz, 6 ch, 640 kb/s | Ger
Рекламы нет
Сэмпл

Код:

Общее
Уникальный идентификатор                 : 207177267766467418871098005669040468710 (0x9BDCE3EFDD1127C1AC20C8DCAA9DB2E6)
Полное имя                               : Dark.S03E01.2160p.WEB.mkv
Формат                                   : Matroska
Версия формата                           : Version 4
Размер файла                             : 6,79 Гбайт
Продолжительность                        : 1 ч. 2 м.
Общий поток                              : 15,6 Мбит/сек
Дата кодирования                         : UTC 2020-07-01 19:58:53
Программа кодирования                    : mkvmerge v8.3.0 ('Over the Horizon') 64bit
Библиотека кодирования                   : libebml v1.3.1 + libmatroska v1.4.2

Видео
Идентификатор                            : 1
Формат                                   : HEVC
Формат/Информация                        : High Efficiency Video Coding
Профиль формата                          : Main 10@L5.1@High
Идентификатор кодека                     : V_MPEGH/ISO/HEVC
Продолжительность                        : 1 ч. 1 м.
Битрейт                                  : 14,8 Мбит/сек
Ширина                                   : 3840 пикселей
Высота                                   : 1920 пикселей
Соотношение сторон                       : 2,000
Режим частоты кадров                     : Постоянный
Частота кадров                           : 24,000 кадра/сек
Цветовое пространство                    : YUV
Субдискретизация насыщенности            : 4:2:0
Битовая глубина                          : 10 бит
Бит/(Пиксели*Кадры)                      : 0.084
Размер потока                            : 6,34 Гбайт (93%)
Библиотека кодирования                   : x265 3.0_Au+4-dcbec33bfb0f:[Windows][GCC 8.2.1][64 bit] 10bit
Настройки программы                      : cpuid=1111039 / frame-threads=4 / numa-pools=28 / wpp / no-pmode / no-pme / no-psnr / no-ssim / log-level=2 / input-csp=1 / input-res=3840x1920 / interlace=0 / total-frames=88392 / level-idc=51 / high-tier=1 / uhd-bd=0 / ref=5 / no-allow-non-conformance / repeat-headers / annexb / aud / hrd / info / hash=0 / no-temporal-layers / open-gop / min-keyint=24 / keyint=250 / gop-lookahead=0 / bframes=8 / b-adapt=2 / b-pyramid / bframe-bias=0 / rc-lookahead=40 / lookahead-slices=8 / scenecut=40 / radl=0 / no-splice / no-intra-refresh / ctu=64 / min-cu-size=8 / no-rect / no-amp / max-tu-size=32 / tu-inter-depth=4 / tu-intra-depth=4 / limit-tu=4 / rdoq-level=0 / dynamic-rd=0.00 / no-ssim-rd / signhide / no-tskip / nr-intra=0 / nr-inter=0 / no-constrained-intra / strong-intra-smoothing / max-merge=4 / limit-refs=3 / no-limit-modes / me=1 / subme=5 / merange=57 / temporal-mvp / weightp / weightb / no-analyze-src-pics / deblock=-3:-3 / no-sao / no-sao-non-deblock / rd=4 / no-early-skip / rskip / no-fast-intra / no-tskip-fast / no-cu-lossless / b-intra / no-splitrd-skip / rdpenalty=0 / psy-rd=2.00 / psy-rdoq=0.00 / no-rd-refine / no-lossless / cbqpoffs=0 / crqpoffs=0 / rc=crf / crf=19.0 / qcomp=0.60 / qpstep=4 / stats-write=0 / stats-read=0 / vbv-maxrate=160000 / vbv-bufsize=160000 / vbv-init=0.9 / crf-max=0.0 / crf-min=0.0 / ipratio=1.30 / pbratio=1.20 / aq-mode=1 / aq-strength=0.85 / no-cutree / zone-count=0 / no-strict-cbr / qg-size=32 / no-rc-grain / qpmax=69 / qpmin=0 / no-const-vbv / sar=1 / overscan=0 / videoformat=5 / range=0 / colorprim=1 / transfer=1 / colormatrix=1 / chromaloc=0 / display-window=0 / max-cll=0,0 / min-luma=0 / max-luma=1023 / log2-max-poc-lsb=8 / vui-timing-info / vui-hrd-info / slices=1 / no-opt-qp-pps / no-opt-ref-list-length-pps / no-multi-pass-opt-rps / scenecut-bias=0.05 / no-opt-cu-delta-qp / no-aq-motion / no-hdr / no-hdr-opt / no-dhdr10-opt / no-idr-recovery-sei / analysis-reuse-level=5 / scale-factor=0 / refine-intra=0 / refine-inter=0 / refine-mv=0 / refine-ctu-distortion=0 / no-limit-sao / ctu-info=0 / no-lowpass-dct / refine-analysis-type=0 / copy-pic=1 / max-ausize-factor=1.0 / no-dynamic-refine / no-single-sei / no-hevc-aq / qp-adaptation-range=1.00
Default                                  : Да
Forced                                   : Нет
Цветовой диапазон                        : Limited
Основные цвета                           : BT.709
Характеристики трансфера                 : BT.709
Коэффициенты матрицы                     : BT.709

Аудио #1
Идентификатор                            : 2
Формат                                   : AC-3
Формат/Информация                        : Audio Coding 3
Коммерческое название                    : Dolby Digital
Идентификатор кодека                     : A_AC3
Продолжительность                        : 1 ч. 1 м.
Вид битрейта                             : Постоянный
Битрейт                                  : 384 Кбит/сек
Каналы                                   : 6 каналов
Channel layout                           : L R C LFE Ls Rs
Частота                                  : 48,0 КГц
Частота кадров                           : 31,250 кадров/сек (1536 SPF)
Битовая глубина                          : 16 бит
Метод сжатия                             : С потерями
Размер потока                            : 169 Мбайт (2%)
Заголовок                                : NewStudio
Язык                                     : Russian
ServiceKind/String                       : Complete Main
Default                                  : Да
Forced                                   : Нет

Аудио #2
Идентификатор                            : 3
Формат                                   : E-AC-3
Формат/Информация                        : Enhanced AC-3
Коммерческое название                    : Dolby Digital Plus
Идентификатор кодека                     : A_EAC3
Продолжительность                        : 1 ч. 2 м.
Вид битрейта                             : Постоянный
Битрейт                                  : 640 Кбит/сек
Каналы                                   : 6 каналов
Channel layout                           : L R C LFE Ls Rs
Частота                                  : 48,0 КГц
Частота кадров                           : 31,250 кадров/сек (1536 SPF)
Метод сжатия                             : С потерями
Размер потока                            : 284 Мбайт (4%)
Заголовок                                : German
Язык                                     : German
ServiceKind/String                       : Complete Main
Default                                  : Нет
Forced                                   : Нет

Текст #1
Идентификатор                            : 4
Формат                                   : UTF-8
Идентификатор кодека                     : S_TEXT/UTF8
Идентификатор кодека/Информация          : UTF-8 Plain Text
Продолжительность                        : 54 м. 38 с.
Битрейт                                  : 1 бит/сек
ElementCount                             : 20
Размер потока                            : 798 байт (0%)
Заголовок                                : Forced |NS|
Язык                                     : Russian
Default                                  : Да
Forced                                   : Да

Текст #2
Идентификатор                            : 5
Формат                                   : UTF-8
Идентификатор кодека                     : S_TEXT/UTF8
Идентификатор кодека/Информация          : UTF-8 Plain Text
Продолжительность                        : 57 м. 13 с.
Битрейт                                  : 42 бит/сек
ElementCount                             : 455
Размер потока                            : 17,9 Кбайт (0%)
Заголовок                                : Russian
Язык                                     : Russian
Default                                  : Нет
Forced                                   : Нет

Текст #3
Идентификатор                            : 6
Формат                                   : UTF-8
Идентификатор кодека                     : S_TEXT/UTF8
Идентификатор кодека/Информация          : UTF-8 Plain Text
Продолжительность                        : 1 ч. 1 м.
Битрейт                                  : 26 бит/сек
ElementCount                             : 449
Размер потока                            : 11,8 Кбайт (0%)
Заголовок                                : English
Язык                                     : English
Default                                  : Нет
Forced                                   : Да

Текст #4
Идентификатор                            : 7
Формат                                   : UTF-8
Идентификатор кодека                     : S_TEXT/UTF8
Идентификатор кодека/Информация          : UTF-8 Plain Text
Продолжительность                        : 1 ч. 0 м.
Битрейт                                  : 44 бит/сек
ElementCount                             : 456
Размер потока                            : 19,8 Кбайт (0%)
Заголовок                                : Arabic
Язык                                     : Arabic
Default                                  : Нет
Forced                                   : Нет

Текст #5
Идентификатор                            : 8
Формат                                   : UTF-8
Идентификатор кодека                     : S_TEXT/UTF8
Идентификатор кодека/Информация          : UTF-8 Plain Text
Продолжительность                        : 1 ч. 0 м.
Битрейт                                  : 28 бит/сек
ElementCount                             : 475
Размер потока                            : 12,5 Кбайт (0%)
Заголовок                                : Chinese Simplified
Язык                                     : Chinese
Default                                  : Нет
Forced                                   : Нет

Текст #6
Идентификатор                            : 9
Формат                                   : UTF-8
Идентификатор кодека                     : S_TEXT/UTF8
Идентификатор кодека/Информация          : UTF-8 Plain Text
Продолжительность                        : 57 м. 12 с.
Битрейт                                  : 29 бит/сек
ElementCount                             : 456
Размер потока                            : 12,6 Кбайт (0%)
Заголовок                                : Chinese Traditional
Язык                                     : Chinese
Default                                  : Нет
Forced                                   : Нет

Текст #7
Идентификатор                            : 10
Формат                                   : UTF-8
Идентификатор кодека                     : S_TEXT/UTF8
Идентификатор кодека/Информация          : UTF-8 Plain Text
Продолжительность                        : 57 м. 13 с.
Битрейт                                  : 25 бит/сек
ElementCount                             : 451
Размер потока                            : 10,9 Кбайт (0%)
Заголовок                                : Czech
Язык                                     : Czech
Default                                  : Нет
Forced                                   : Нет

Текст #8
Идентификатор                            : 11
Формат                                   : UTF-8
Идентификатор кодека                     : S_TEXT/UTF8
Идентификатор кодека/Информация          : UTF-8 Plain Text
Продолжительность                        : 57 м. 18 с.
Битрейт                                  : 27 бит/сек
ElementCount                             : 416
Размер потока                            : 11,5 Кбайт (0%)
Заголовок                                : Danish
Язык                                     : Danish
Default                                  : Нет
Forced                                   : Нет

Текст #9
Идентификатор                            : 12
Формат                                   : UTF-8
Идентификатор кодека                     : S_TEXT/UTF8
Идентификатор кодека/Информация          : UTF-8 Plain Text
Продолжительность                        : 57 м. 19 с.
Битрейт                                  : 26 бит/сек
ElementCount                             : 404
Размер потока                            : 11,1 Кбайт (0%)
Заголовок                                : Dutch
Язык                                     : Dutch
Default                                  : Нет
Forced                                   : Нет

Текст #10
Идентификатор                            : 13
Формат                                   : UTF-8
Идентификатор кодека                     : S_TEXT/UTF8
Идентификатор кодека/Информация          : UTF-8 Plain Text
Продолжительность                        : 1 ч. 1 м.
Битрейт                                  : 24 бит/сек
ElementCount                             : 419
Размер потока                            : 11,0 Кбайт (0%)
Заголовок                                : Finnish
Язык                                     : Finnish
Default                                  : Нет
Forced                                   : Нет

Текст #11
Идентификатор                            : 14
Формат                                   : UTF-8
Идентификатор кодека                     : S_TEXT/UTF8
Идентификатор кодека/Информация          : UTF-8 Plain Text
Продолжительность                        : 57 м. 12 с.
Битрейт                                  : 27 бит/сек
ElementCount                             : 420
Размер потока                            : 11,6 Кбайт (0%)
Заголовок                                : French
Язык                                     : French
Default                                  : Нет
Forced                                   : Нет

Текст #12
Идентификатор                            : 15
Формат                                   : UTF-8
Идентификатор кодека                     : S_TEXT/UTF8
Идентификатор кодека/Информация          : UTF-8 Plain Text
Продолжительность                        : 57 м. 1 с.
Битрейт                                  : 51 бит/сек
ElementCount                             : 568
Размер потока                            : 21,6 Кбайт (0%)
Заголовок                                : German
Язык                                     : German
Default                                  : Нет
Forced                                   : Нет

Текст #13
Идентификатор                            : 16
Формат                                   : UTF-8
Идентификатор кодека                     : S_TEXT/UTF8
Идентификатор кодека/Информация          : UTF-8 Plain Text
Продолжительность                        : 57 м. 13 с.
Битрейт                                  : 45 бит/сек
ElementCount                             : 457
Размер потока                            : 19,0 Кбайт (0%)
Заголовок                                : Greek
Язык                                     : Greek
Default                                  : Нет
Forced                                   : Нет

Текст #14
Идентификатор                            : 17
Формат                                   : UTF-8
Идентификатор кодека                     : S_TEXT/UTF8
Идентификатор кодека/Информация          : UTF-8 Plain Text
Продолжительность                        : 57 м. 15 с.
Битрейт                                  : 44 бит/сек
ElementCount                             : 456
Размер потока                            : 18,7 Кбайт (0%)
Заголовок                                : Hebrew
Язык                                     : Hebrew
Default                                  : Нет
Forced                                   : Нет

Текст #15
Идентификатор                            : 18
Формат                                   : UTF-8
Идентификатор кодека                     : S_TEXT/UTF8
Идентификатор кодека/Информация          : UTF-8 Plain Text
Продолжительность                        : 1 ч. 0 м.
Битрейт                                  : 24 бит/сек
ElementCount                             : 450
Размер потока                            : 11,1 Кбайт (0%)
Заголовок                                : Hungarian
Язык                                     : Hungarian
Default                                  : Нет
Forced                                   : Нет

Текст #16
Идентификатор                            : 19
Формат                                   : UTF-8
Идентификатор кодека                     : S_TEXT/UTF8
Идентификатор кодека/Информация          : UTF-8 Plain Text
Продолжительность                        : 1 ч. 1 м.
Битрейт                                  : 24 бит/сек
ElementCount                             : 451
Размер потока                            : 11,1 Кбайт (0%)
Заголовок                                : Indonesian
Язык                                     : Indonesian
Default                                  : Нет
Forced                                   : Нет

Текст #17
Идентификатор                            : 20
Формат                                   : UTF-8
Идентификатор кодека                     : S_TEXT/UTF8
Идентификатор кодека/Информация          : UTF-8 Plain Text
Продолжительность                        : 1 ч. 0 м.
Битрейт                                  : 25 бит/сек
ElementCount                             : 441
Размер потока                            : 11,2 Кбайт (0%)
Заголовок                                : Italian
Язык                                     : Italian
Default                                  : Нет
Forced                                   : Нет

Текст #18
Идентификатор                            : 21
Формат                                   : UTF-8
Идентификатор кодека                     : S_TEXT/UTF8
Идентификатор кодека/Информация          : UTF-8 Plain Text
Продолжительность                        : 1 ч. 1 м.
Битрейт                                  : 26 бит/сек
ElementCount                             : 434
Размер потока                            : 11,8 Кбайт (0%)
Заголовок                                : Japanese
Язык                                     : Japanese
Default                                  : Нет
Forced                                   : Нет

Текст #19
Идентификатор                            : 22
Формат                                   : UTF-8
Идентификатор кодека                     : S_TEXT/UTF8
Идентификатор кодека/Информация          : UTF-8 Plain Text
Продолжительность                        : 57 м. 12 с.
Битрейт                                  : 34 бит/сек
ElementCount                             : 453
Размер потока                            : 14,5 Кбайт (0%)
Заголовок                                : Korean
Язык                                     : Korean
Default                                  : Нет
Forced                                   : Нет

Текст #20
Идентификатор                            : 23
Формат                                   : UTF-8
Идентификатор кодека                     : S_TEXT/UTF8
Идентификатор кодека/Информация          : UTF-8 Plain Text
Продолжительность                        : 57 м. 18 с.
Битрейт                                  : 27 бит/сек
ElementCount                             : 405
Размер потока                            : 11,5 Кбайт (0%)
Заголовок                                : Norwegian Bokmal
Язык                                     : Norwegian Bokmal
Default                                  : Нет
Forced                                   : Нет

Текст #21
Идентификатор                            : 24
Формат                                   : UTF-8
Идентификатор кодека                     : S_TEXT/UTF8
Идентификатор кодека/Информация          : UTF-8 Plain Text
Продолжительность                        : 1 ч. 1 м.
Битрейт                                  : 23 бит/сек
ElementCount                             : 426
Размер потока                            : 10,5 Кбайт (0%)
Заголовок                                : Polish
Язык                                     : Polish
Default                                  : Нет
Forced                                   : Нет

Текст #22
Идентификатор                            : 25
Формат                                   : UTF-8
Идентификатор кодека                     : S_TEXT/UTF8
Идентификатор кодека/Информация          : UTF-8 Plain Text
Продолжительность                        : 57 м. 12 с.
Битрейт                                  : 28 бит/сек
ElementCount                             : 449
Размер потока                            : 11,8 Кбайт (0%)
Заголовок                                : Portuguese
Язык                                     : Portuguese
Default                                  : Нет
Forced                                   : Нет

Текст #23
Идентификатор                            : 26
Формат                                   : UTF-8
Идентификатор кодека                     : S_TEXT/UTF8
Идентификатор кодека/Информация          : UTF-8 Plain Text
Продолжительность                        : 1 ч. 0 м.
Битрейт                                  : 25 бит/сек
ElementCount                             : 452
Размер потока                            : 11,4 Кбайт (0%)
Заголовок                                : Brazilian Portuguese
Язык                                     : Portuguese
Default                                  : Нет
Forced                                   : Нет

Текст #24
Идентификатор                            : 27
Формат                                   : UTF-8
Идентификатор кодека                     : S_TEXT/UTF8
Идентификатор кодека/Информация          : UTF-8 Plain Text
Продолжительность                        : 1 ч. 1 м.
Битрейт                                  : 29 бит/сек
ElementCount                             : 440
Размер потока                            : 13,0 Кбайт (0%)
Заголовок                                : Romanian
Язык                                     : Romanian
Default                                  : Нет
Forced                                   : Нет

Текст #25
Идентификатор                            : 28
Формат                                   : UTF-8
Идентификатор кодека                     : S_TEXT/UTF8
Идентификатор кодека/Информация          : UTF-8 Plain Text
Продолжительность                        : 1 ч. 0 м.
Битрейт                                  : 25 бит/сек
ElementCount                             : 456
Размер потока                            : 11,4 Кбайт (0%)
Заголовок                                : Spanish
Язык                                     : Spanish
Default                                  : Нет
Forced                                   : Нет

Текст #26
Идентификатор                            : 29
Формат                                   : UTF-8
Идентификатор кодека                     : S_TEXT/UTF8
Идентификатор кодека/Информация          : UTF-8 Plain Text
Продолжительность                        : 57 м. 13 с.
Битрейт                                  : 28 бит/сек
ElementCount                             : 452
Размер потока                            : 12,0 Кбайт (0%)
Заголовок                                : European Spanish
Язык                                     : Spanish
Default                                  : Нет
Forced                                   : Нет

Текст #27
Идентификатор                            : 30
Формат                                   : UTF-8
Идентификатор кодека                     : S_TEXT/UTF8
Идентификатор кодека/Информация          : UTF-8 Plain Text
Продолжительность                        : 57 м. 18 с.
Битрейт                                  : 27 бит/сек
ElementCount                             : 423
Размер потока                            : 11,5 Кбайт (0%)
Заголовок                                : Swedish
Язык                                     : Swedish
Default                                  : Нет
Forced                                   : Нет

Текст #28
Идентификатор                            : 31
Формат                                   : UTF-8
Идентификатор кодека                     : S_TEXT/UTF8
Идентификатор кодека/Информация          : UTF-8 Plain Text
Продолжительность                        : 1 ч. 1 м.
Битрейт                                  : 64 бит/сек
ElementCount                             : 456
Размер потока                            : 28,9 Кбайт (0%)
Заголовок                                : Thai
Язык                                     : Thai
Default                                  : Нет
Forced                                   : Нет

Текст #29
Идентификатор                            : 32
Формат                                   : UTF-8
Идентификатор кодека                     : S_TEXT/UTF8
Идентификатор кодека/Информация          : UTF-8 Plain Text
Продолжительность                        : 1 ч. 0 м.
Битрейт                                  : 27 бит/сек
ElementCount                             : 452
Размер потока                            : 12,2 Кбайт (0%)
Заголовок                                : Turkish
Язык                                     : Turkish
Default                                  : Нет
Forced                                   : Нет

Текст #30
Идентификатор                            : 33
Формат                                   : UTF-8
Идентификатор кодека                     : S_TEXT/UTF8
Идентификатор кодека/Информация          : UTF-8 Plain Text
Продолжительность                        : 57 м. 12 с.
Битрейт                                  : 38 бит/сек
ElementCount                             : 449
Размер потока                            : 16,2 Кбайт (0%)
Заголовок                                : Vietnamese
Язык                                     : Vietnamese
Default                                  : Нет
Forced                                   : Нет


Скрыт Profile PM
Показать сообщения:    
Ответить на тему

Текущее время: 28-Ноя 17:03

Часовой пояс: GMT + 3



Вы не можете начинать темы
Вы не можете отвечать на сообщения
Вы не можете редактировать свои сообщения
Вы не можете удалять свои сообщения
Вы не можете голосовать в опросах
Вы не можете прикреплять файлы к сообщениям
Вы не можете скачивать файлы
Рейтинг торрент трекеров - UpTracker.ru Яндекс.Метрика
службы мониторинга серверов