Loading...
Error

Захар Беркут | The Rising Hawk (Ахтем Сейтаблаев, Джон Винн) [2019 г., Боевик, драма, история, WEB-DL 1080p] | MVO (HDRezka Studio)

Ответить на тему
 
Автор Сообщение

Theseus

Стаж: 10 лет

Сообщений: 4719

Режим только чтение: НЕТ

post 31-Июл-2020 13:05

Quote

Захар Беркут | The Rising Hawk

Год выхода: 2019
Страна: Украина, США
Жанр: боевик, драма, история
Продолжительность: 01:43:44
Перевод Профессиональный (многоголосый, закадровый) | HDRezka Studio
Субтитры: Русские (форс.)
Режиссер: Ахтем Сейтаблаев, Джон Винн
В ролях: Элисон Дуди, Томми Флэнаган, Роберт Патрик, Поппи Дрейтон, Алекс МакНиколл, Роки Майерс, Oliver Trevena, Алина Коваленко, Олег Волощенко, Виктор Жданов
О фильме: 1241 год. Монгольская орда во главе с ханом Бурундой движется на запад, истребляя все на своём пути и захватывая пленных. Дойдя до высоких Карпатских гор, войско останавливается у подножия. Ночью несколько местных охотников, братья Беркуты, тайком пробираются в лагерь и освобождают пленных. Узнав об этом, Бурунда приходит в ярость и решает отомстить, уничтожив местные поселения. Для этого он находит предателя среди местных, который открывает ему тайный проход в горах. Однако у горских охотников под предводительством Захара Беркута есть свой план, как раз и навсегда остановить врага.

Качество: WEB-DL 1080p
Формат: MKV
Видео кодек: x.264
Аудио кодек: AC3
Видео: AVC, 1912x796 (2.40:1), 25.000 fps, 4 449 kb/s
Аудио 1: AC-3, 48.0 kHz, 6 ch, 384 kb/s | RUS
Аудио 2: AC-3, 48.0 kHz, 6 ch, 384 kb/s | ENG
Рекламы нет
Сэмпл

Код:

Общее
Уникальный идентификатор                 : 194099526705646397487597352110980446716 (0x9206358570955743B7E821DED82DB9FC)
Полное имя                               : The.Rising.Hawk.2019.MVO.1080p.WEB-DL.ExKinoRay.mkv
Формат                                   : Matroska
Версия формата                           : Version 2
Размер файла                             : 3,86 Гбайт
Продолжительность                        : 1 ч. 43 м.
Общий поток                              : 5323 Кбит/сек
Название фильма                          : The Rising Hawk 2019 from ExKinoRay
Дата кодирования                         : UTC 2020-07-30 20:21:08
Программа кодирования                    : mkvmerge v5.6.0 ('Kenya Kane') built on May 27 2012 16:44:04
Библиотека кодирования                   : libebml v1.2.3 + libmatroska v1.3.0

Видео
Идентификатор                            : 1
Формат                                   : AVC
Формат/Информация                        : Advanced Video Codec
Профиль формата                          : High@L4
Настройки формата                        : CABAC / 5 Ref Frames
Параметр CABAC формата                   : Да
Параметр RefFrames формата               : 5 кадров
Идентификатор кодека                     : V_MPEG4/ISO/AVC
Продолжительность                        : 1 ч. 43 м.
Битрейт                                  : 4449 Кбит/сек
Ширина                                   : 1912 пикселей
Высота                                   : 796 пикселей
Соотношение сторон                       : 2,40:1
Режим частоты кадров                     : Постоянный
Частота кадров                           : 25,000 кадров/сек
Цветовое пространство                    : YUV
Субдискретизация насыщенности            : 4:2:0
Битовая глубина                          : 8 бит
Тип развёртки                            : Прогрессивная
Бит/(Пиксели*Кадры)                      : 0.117
Размер потока                            : 3,22 Гбайт (84%)
Default                                  : Да
Forced                                   : Нет
Цветовой диапазон                        : Limited
Основные цвета                           : BT.709
Характеристики трансфера                 : BT.709
Коэффициенты матрицы                     : BT.709

Аудио #1
Идентификатор                            : 2
Формат                                   : AC-3
Формат/Информация                        : Audio Coding 3
Коммерческое название                    : Dolby Digital
Идентификатор кодека                     : A_AC3
Продолжительность                        : 1 ч. 43 м.
Вид битрейта                             : Постоянный
Битрейт                                  : 384 Кбит/сек
Каналы                                   : 6 каналов
Channel layout                           : L R C LFE Ls Rs
Частота                                  : 48,0 КГц
Частота кадров                           : 31,250 кадров/сек (1536 SPF)
Битовая глубина                          : 16 бит
Метод сжатия                             : С потерями
Размер потока                            : 285 Мбайт (7%)
Заголовок                                : MVO (HDRezka Studio)
Язык                                     : Russian
ServiceKind/String                       : Complete Main
Default                                  : Да
Forced                                   : Нет

Аудио #2
Идентификатор                            : 3
Формат                                   : AC-3
Формат/Информация                        : Audio Coding 3
Коммерческое название                    : Dolby Digital
Идентификатор кодека                     : A_AC3
Продолжительность                        : 1 ч. 43 м.
Вид битрейта                             : Постоянный
Битрейт                                  : 384 Кбит/сек
Каналы                                   : 6 каналов
Channel layout                           : L R C LFE Ls Rs
Частота                                  : 48,0 КГц
Частота кадров                           : 31,250 кадров/сек (1536 SPF)
Битовая глубина                          : 16 бит
Метод сжатия                             : С потерями
Размер потока                            : 285 Мбайт (7%)
Язык                                     : English
ServiceKind/String                       : Complete Main
Default                                  : Нет
Forced                                   : Нет

Текст
Идентификатор                            : 4
Формат                                   : UTF-8
Идентификатор кодека                     : S_TEXT/UTF8
Идентификатор кодека/Информация          : UTF-8 Plain Text
Заголовок                                : Forced
Язык                                     : Russian
Default                                  : Да
Forced                                   : Нет

Меню
00:00:00.000                             : en:Capítulo 1
00:10:10.200                             : en:Capítulo 2
00:20:25.920                             : en:Capítulo 3
00:30:14.240                             : en:Capítulo 4
00:41:09.720                             : en:Capítulo 5
00:51:01.720                             : en:Capítulo 6
01:02:40.359                             : en:Capítulo 7
01:11:11.158                             : en:Capítulo 8
01:21:37.717                             : en:Capítulo 9
01:30:49.437                             : en:Capítulo 10



Скрыт Profile PM
Показать сообщения:    
Ответить на тему

Текущее время: 05-Авг 06:57

Часовой пояс: GMT + 3



Вы не можете начинать темы
Вы не можете отвечать на сообщения
Вы не можете редактировать свои сообщения
Вы не можете удалять свои сообщения
Вы не можете голосовать в опросах
Вы не можете прикреплять файлы к сообщениям
Вы не можете скачивать файлы
Рейтинг торрент трекеров - UpTracker.ru Яндекс.Метрика
службы мониторинга серверов