Loading...
Error

Гарет Джонс / Mr. Jones (Агнешка Холланд) [2019 г., триллер, драма, биография, BDRip] DUB (UKR)

Ответить на тему
 
Автор Сообщение

Theseus

Стаж: 11 лет

Сообщений: 4750

Режим только чтение: НЕТ

post 07-Окт-2020 09:53

Quote

Гарет Джонс / Mr. Jones

Год выхода: 2019
Страна: Польша, Великобритания, Украина
Жанр: триллер, драма, биография
Продолжительность: 01:58:44
Перевод: Профессиональный дублированный (Украинский)
Субтитры: Английские (вшитые/форс. на русский язык)
Режиссер: Агнешка Холланд
В ролях: Джеймс Нортон, Ванесса Кирби, Питер Сарсгаард, Джозеф Моул, Кеннет Крэнэм, Селин Джонс, Кшиштоф Печиньский, Фенелла Вулгар, Мартин Бишоп, Джон Эдмондсон
О фильме: В 1930-е годы в СССР приезжает молодой журналист из Уэльса Гарет Джонс, который мечтает взять интервью у Сталина. Став свидетелем жестоких репрессий и народных бедствий, Гарет с угрозой для жизни пишет статью о тёмной стороне советской утопии. Пока спецслужбы и сторонники Сталина ищут способ заставить его замолчать, начинающий писатель Джордж Оруэлл под впечатлением от его истории задумывает повесть «Скотный двор».

Качество: BDRip
Формат: AVI
Видео кодек: XviD
Аудио кодек: AC3
Видео: MPEG4, XviD, 720x290 (2.483), 24.000 fps, 1 358 kb/s
Аудио: AC-3, 48.0 kHz, 6 ch, 384 kb/s | UKR
Сэмпл

Код:

Общее
Полное имя                               : Mr.Jones.(2019).BDRip.Ukr.avi
Формат                                   : AVI
Формат/Информация                        : Audio Video Interleave
Размер файла                             : 1,45 Гбайт
Продолжительность                        : 1 ч. 58 м.
Общий поток                              : 1753 Кбит/сек

Видео
Идентификатор                            : 0
Формат                                   : MPEG-4 Visual
Профиль формата                          : Advanced Simple@L5
Настройки формата                        : BVOP2
Параметр BVOP формата                    : 2
Параметр QPel формата                    : Нет
Параметр GMC формата                     : Без точки перехода
Параметр матрицы формата                 : Default (MPEG)
Идентификатор кодека                     : XVID
Идентификатор кодека/Подсказка           : XviD
Продолжительность                        : 1 ч. 58 м.
Битрейт                                  : 1358 Кбит/сек
Ширина                                   : 720 пикселей
Высота                                   : 290 пикселей
Соотношение сторон                       : 2,483
Частота кадров                           : 24,000 кадра/сек
Цветовое пространство                    : YUV
Субдискретизация насыщенности            : 4:2:0
Битовая глубина                          : 8 бит
Тип развёртки                            : Прогрессивная
Метод сжатия                             : С потерями
Бит/(Пиксели*Кадры)                      : 0.271
Размер потока                            : 1,13 Гбайт (77%)
Библиотека кодирования                   : XviD 1.2.1 (UTC 2008-12-04)

Аудио
Идентификатор                            : 1
Формат                                   : AC-3
Формат/Информация                        : Audio Coding 3
Коммерческое название                    : Dolby Digital
Идентификатор кодека                     : 2000
Продолжительность                        : 1 ч. 58 м.
Вид битрейта                             : Постоянный
Битрейт                                  : 384 Кбит/сек
Каналы                                   : 6 каналов
Channel layout                           : L R C LFE Ls Rs
Частота                                  : 48,0 КГц
Частота кадров                           : 31,250 кадров/сек (1536 SPF)
Битовая глубина                          : 16 бит
Метод сжатия                             : С потерями
Размер потока                            : 326 Мбайт (22%)
Выравнивание                             : Соединение по промежуткам
Продолжительность промежутка             : 32  мс. (0,77 видеокадр)
ServiceKind/String                       : Complete Main



Скрыт Profile PM
Показать сообщения:    
Ответить на тему

Текущее время: 31-Окт 11:18

Часовой пояс: GMT + 3



Вы не можете начинать темы
Вы не можете отвечать на сообщения
Вы не можете редактировать свои сообщения
Вы не можете удалять свои сообщения
Вы не можете голосовать в опросах
Вы не можете прикреплять файлы к сообщениям
Вы не можете скачивать файлы
Рейтинг торрент трекеров - UpTracker.ru Яндекс.Метрика
службы мониторинга серверов