Loading...
Error

Новые мутанты / The New Mutants (Джош Бун) [2020 г., ужасы, фантастика, боевик, HDTVRip-AVC] [UKR]

Ответить на тему
 
Автор Сообщение

Theseus

Стаж: 11 лет

Сообщений: 4756

Режим только чтение: НЕТ

post 31-Окт-2020 08:03

Quote

Новые мутанты / The New Mutants
Киновселенная «Люди Икс»

Год выхода: 2020
Страна: США
Жанр: ужасы, фантастика, боевик
Продолжительность: 01:23:23
Перевод: Профессиональный дублированный (Украинский)
Субтитры: Украинские (forced) | вшитые
Режиссер: Джош Бун
В ролях: Блю Хант, Алиси Брага. Мэйси Уильямс, Аня Тейлор-Джой, Чарли Хитон, Генри Зага, Адам Бич, Томас Ки, Колби Ганнетт, Хэппи Андерсон
О фильме: Пятерых юных мутантов против их воли держат на секретном объекте. Здесь они обнаруживают у себя суперспособности и начинают сражаться, чтобы вырваться из заключения.

Качество: HDTVRip-AVC
Формат: MKV
Видео кодек: x.264
Аудио кодек: MP2
Видео: AVC, 1024x576 (16:9), 25.000 fps, 1 072 kb/s
Аудио: MP2, 48.0 kHz, 2 ch, 192 kb/s | (DUB) UKR
Сэмпл

Код:

Общее
Уникальный идентификатор                 : 61783218229620935313735515473346473532 (0x2E7B03D75C833B3813E61CA2CB42AE3C)
Полное имя                               : The New Mutants.2020.WEBRip-sergiyko.mkv
Формат                                   : Matroska
Версия формата                           : Version 4
Размер файла                             : 769 Мбайт
Продолжительность                        : 1 ч. 23 м.
Общий поток                              : 1290 Кбит/сек
Название фильма                          : The New Mutants 2020 by sergiyko
Программа кодирования                    : Lavf58.42.101
Библиотека кодирования                   : Lavf58.42.101
ErrorDetectionType                       : Per level 1

Видео
Идентификатор                            : 1
Формат                                   : AVC
Формат/Информация                        : Advanced Video Codec
Профиль формата                          : High@L3.1
Настройки формата                        : CABAC / 7 Ref Frames
Параметр CABAC формата                   : Да
Параметр RefFrames формата               : 7 кадров
Идентификатор кодека                     : V_MPEG4/ISO/AVC
Продолжительность                        : 1 ч. 23 м.
Битрейт                                  : 1072 Кбит/сек
Ширина                                   : 1024 пикселя
Высота                                   : 576 пикселей
Соотношение сторон                       : 16:9
Режим частоты кадров                     : Постоянный
Частота кадров                           : 25,000 кадров/сек
Цветовое пространство                    : YUV
Субдискретизация насыщенности            : 4:2:0
Битовая глубина                          : 8 бит
Тип развёртки                            : Прогрессивная
Бит/(Пиксели*Кадры)                      : 0.073
Размер потока                            : 639 Мбайт (83%)
Заголовок                                : The New Mutants 2020
Библиотека кодирования                   : x264 core 159
Настройки программы                      : cabac=1 / ref=7 / deblock=1:0:0 / analyse=0x3:0x133 / me=umh / subme=10 / psy=1 / psy_rd=1.00:0.00 / mixed_ref=1 / me_range=24 / chroma_me=1 / trellis=2 / 8x8dct=1 / cqm=0 / deadzone=21,11 / fast_pskip=1 / chroma_qp_offset=-2 / threads=18 / lookahead_threads=3 / sliced_threads=0 / nr=0 / decimate=1 / interlaced=0 / bluray_compat=0 / constrained_intra=0 / bframes=8 / b_pyramid=2 / b_adapt=2 / b_bias=0 / direct=3 / weightb=1 / open_gop=0 / weightp=2 / keyint=250 / keyint_min=25 / scenecut=40 / intra_refresh=0 / rc_lookahead=60 / rc=crf / mbtree=1 / crf=19.0 / qcomp=0.60 / qpmin=0 / qpmax=69 / qpstep=4 / ip_ratio=1.40 / aq=1:1.00
Язык                                     : English
Default                                  : Да
Forced                                   : Нет
Statistics Tags Issue                    : mkvmerge v51.0.0 ('I Wish') 64-bit 2020-10-28 20:47:26 / Lavf58.42.101
FromStats_BitRate                        : 4995828
FromStats_Duration                       : 01:23:23.600000000
FromStats_FrameCount                     : 125090
FromStats_StreamSize                     : 3124640811

Аудио
Идентификатор                            : 2
Формат                                   : MPEG Audio
Версия формата                           : Version 1
Профиль формата                          : Layer 2
Настройки формата                        : Joint stereo / Intensity Stereo + MS Stereo
Идентификатор кодека                     : A_MPEG/L2
Идентификатор кодека/Подсказка           : MP2
Продолжительность                        : 1 ч. 23 м.
Вид битрейта                             : Постоянный
Битрейт                                  : 192 Кбит/сек
Каналы                                   : 2 канала
Частота                                  : 48,0 КГц
Метод сжатия                             : С потерями
Размер потока                            : 115 Мбайт (15%)
Заголовок                                : DUB MP2 2ch
Язык                                     : Ukrainian
Default                                  : Да
Forced                                   : Нет
Statistics Tags Issue                    : mkvmerge v51.0.0 ('I Wish') 64-bit 2020-10-28 20:47:26 / Lavf58.42.101
FromStats_BitRate                        : 192000
FromStats_Duration                       : 01:23:23.616000000
FromStats_FrameCount                     : 208484
FromStats_StreamSize                     : 120086784



Скрыт Profile PM
Показать сообщения:    
Ответить на тему

Текущее время: 23-Ноя 15:35

Часовой пояс: GMT + 3



Вы не можете начинать темы
Вы не можете отвечать на сообщения
Вы не можете редактировать свои сообщения
Вы не можете удалять свои сообщения
Вы не можете голосовать в опросах
Вы не можете прикреплять файлы к сообщениям
Вы не можете скачивать файлы
Рейтинг торрент трекеров - UpTracker.ru Яндекс.Метрика
службы мониторинга серверов