Loading...
Error

Лига справедливости Зака Снайдера / Zack Snyder's Justice League (Зак Снайдер) [2021, Фантастика, фэнтези, боевик, приключения , WEB-DL 2160p] [HEVC] [Dolby Vision] DUB (Кинопоиск HD)

Ответить на тему
 
Автор Сообщение

Theseus

Стаж: 11 лет

Сообщений: 4788

Режим только чтение: НЕТ

post 21-Мар-2021 22:08

Quote

Лига справедливости Зака Снайдера / Zack Snyder's Justice League

Год выхода: 2021
Страна: США
Жанр: Фантастика, фэнтези, боевик, приключения
Продолжительность: 04:02:01
Перевод: Профессиональный дублированный (Кинопоиск HD)
Субтитры: Русские (форс., полные), английские (полные, SDH)
Режиссер: Зак Снайдер
В ролях: Бен Аффлек, Галь Гадот, Генри Кавилл, Дайан Лэйн, Джаред Лето, Эзра Миллер, Джейсон Момоа, Конни Нильсен, Дж.К. Симмонс, Робин Райт и др.
О фильме: Вдохновившись самопожертвованием Супермена, Брюс Уэйн вновь обретает веру в человечество. Он заручается поддержкой новой союзницы Дианы Принс, чтобы сразиться с ещё более могущественным противником. Бэтмен и Чудо-женщина набирают команду сверхлюдей для борьбы с пробудившейся угрозой.

Качество: WEB-DL 2160p
Формат: MP4
Видео кодек: H.265
Аудио кодек: AC3, E-AC3
Видео: HEVC, Dolby Vision Profile 5, 3840x2160 (16:9), 23.976 fps, 18 Mb/s, 10 bit
Аудио 1: AC3, 48.0 kHz, 6 ch, 384 kb/s | RUS
Аудио 2: E-AC3, 48.0 kHz, 6 ch, 320 kb/s | RUS
Аудио 3: E-AC3 JOC, 48.0 kHz, 6 ch, 768 kb/s | ENG
Релиз в MP4 в 5-м профиле Dolby Vision для воспроизведении на устройствах с поддержкой DV. Протестировано на тв-боксах Nvidia Shield 2019, Zidoo Z1000 Pro и Ugoos AM6+ и многих других, а также на встроенных плеерах телевизоров LG, Sony, Phillips и Panasonic. На устройствах без поддержки Dolby Vision проигрыватся не будет, так как в видеоряде отсутствуют HDR слой
Общее
Полное имя : Zack.Snyder's.Justice.League.2021.WEB-DL.2160p.Dolby_Vision.P5.by.DVT.mp4
Формат : MPEG-4
Профиль формата : Base Media
Идентификатор кодека : isom (isom)
Размер файла : 32,9 Гбайт
Продолжительность : 4 ч. 2 м.
Режим общего битрейта : Переменный
Общий поток : 19,4 Мбит/сек
Дата кодирования : UTC 2021-03-19 16:21:40
Дата пометки : UTC 2021-03-19 16:21:40

Видео
Идентификатор : 1
Формат : HEVC
Формат/Информация : High Efficiency Video Coding
Профиль формата : Main 10@L5@Main
HDR format : Dolby Vision, Version 1.0, dvhe.05.06, BL+RPU
Идентификатор кодека : dvhe
Идентификатор кодека/Информация : High Efficiency Video Coding with Dolby Vision
Продолжительность : 4 ч. 2 м.
Битрейт : 18,0 Мбит/сек
Ширина : 3 840 пикселей
Высота : 2 160 пикселей
Соотношение сторон : 16:9
Режим частоты кадров : Постоянный
Частота кадров : 23,976 (24000/1001) кадра/сек
Цветовое пространство : YUV
Субдискретизация насыщенности : 4:2:0
Битовая глубина : 10 бит
Бит/(Пиксели*Кадры) : 0.090
Размер потока : 30,4 Гбайт (92%)
Заголовок : Zack Snyder's Justice League (2021) - Release by Dolby Vision Torrents
Библиотека кодирования : x265 3.4hy:[Linux][GCC 7.5.0][64 bit] 10bit
Настройки программы : cpuid=1111039 / frame-threads=1 / no-wpp / no-pmode / no-pme / no-psnr / no-ssim / log-level=2 / input-csp=1 / input-res=3840x2160 / interlace=0 / total-frames=0 / level-idc=0 / high-tier=1 / uhd-bd=0 / ref=4 / no-allow-non-conformance / repeat-headers / annexb / aud / hrd / info / hash=0 / no-temporal-layers / no-open-gop / min-keyint=96 / keyint=96 / gop-lookahead=0 / bframes=4 / b-adapt=2 / b-pyramid / bframe-bias=0 / rc-lookahead=25 / lookahead-slices=4 / scenecut=40 / hist-scenecut=0 / radl=0 / no-splice / no-intra-refresh / ctu=64 / min-cu-size=8 / rect / no-amp / max-tu-size=32 / tu-inter-depth=1 / tu-intra-depth=1 / limit-tu=0 / rdoq-level=2 / dynamic-rd=0.00 / no-ssim-rd / signhide / no-tskip / nr-intra=0 / nr-inter=0 / no-constrained-intra / strong-intra-smoothing / max-merge=3 / limit-refs=3 / limit-modes / me=3 / subme=3 / merange=57 / temporal-mvp / no-frame-dup / no-hme / weightp / no-weightb / no-analyze-src-pics / deblock=0:0 / sao / no-sao-non-deblock / rd=4 / selective-sao=4 / no-early-skip / rskip / no-fast-intra / no-tskip-fast / no-cu-lossless / no-b-intra / no-splitrd-skip / rdpenalty=0 / psy-rd=2.00 / psy-rdoq=1.00 / no-rd-refine / no-lossless / cbqpoffs=0 / crqpoffs=3 / rc=abr / bitrate=18000 / qcomp=0.60 / qpstep=4 / stats-write=0 / stats-read=2 / cplxblur=20.0 / qblur=0.5 / vbv-maxrate=24500 / vbv-bufsize=24500 / vbv-init=0.6 / vbv-end=0.6 / vbv-end-fr-adj=0.0 / ipratio=1.40 / pbratio=1.30 / aq-mode=2 / aq-strength=1.00 / cutree / zone-count=0 / no-strict-cbr / qg-size=32 / no-rc-grain / qpmax=69 / qpmin=0 / no-const-vbv / sar=1 / overscan=0 / videoformat=5 / range=1 / colorprim=2 / transfer=2 / colormatrix=2 / chromaloc=0 / display-window=0 / cll=0,0 / min-luma=0 / max-luma=1023 / log2-max-poc-lsb=8 / vui-timing-info / vui-hrd-info / no-concatenation / slices=1 / no-opt-qp-pps / no-opt-ref-list-length-pps / no-multi-pass-opt-rps / scenecut-bias=0.05 / hist-threshold=0.01 / no-opt-cu-delta-qp / no-aq-motion / no-hdr10 / no-hdr10-opt / no-dhdr10-opt / no-idr-recovery-sei / analysis-reuse-level=0 / analysis-save-reuse-level=0 / analysis-load-reuse-level=0 / scale-factor=0 / refine-intra=0 / refine-inter=0 / refine-mv=1 / refine-ctu-distortion=0 / no-limit-sao / ctu-info=0 / no-lowpass-dct / refine-analysis-type=0 / copy-pic=1 / max-ausize-factor=1.0 / no-dynamic-refine / no-single-sei / no-hevc-aq / no-svt / no-field / qp-adaptation-range=1.00 / no-scenecut-aware-qpconformance-window-offsets / right=0 / bottom=0 / decoder-max-rate=0
Язык : English
Default : Нет
Дата кодирования : UTC 2021-03-18 19:50:26
Дата пометки : UTC 2021-03-19 16:26:16
Цветовой диапазон : Full
Codec configuration box : hvcC+dvcC

Аудио #1
Идентификатор : 2
Формат : AC-3
Формат/Информация : Audio Coding 3
Коммерческое название : Dolby Digital
Идентификатор кодека : ac-3
Продолжительность : 4 ч. 2 м.
Вид битрейта : Постоянный
Битрейт : 384 Кбит/сек
Максимальный битрейт : 406 Кбит/сек
Каналы : 6 каналов
Channel layout : L R C LFE Ls Rs
Частота : 48,0 КГц
Частота кадров : 31,250 кадров/сек (1536 SPF)
Метод сжатия : С потерями
Размер потока : 665 Мбайт (2%)
Заголовок : Russian Dub 5.1 ch
Язык : Russian
Service kind : Complete Main
Дата кодирования : UTC 2021-03-19 16:25:36
Дата пометки : UTC 2021-03-19 16:26:16

Аудио #2
Идентификатор : 3
Формат : E-AC-3
Формат/Информация : Enhanced AC-3
Коммерческое название : Dolby Digital Plus
Идентификатор кодека : ec-3
Продолжительность : 4 ч. 2 м.
Вид битрейта : Постоянный
Битрейт : 320 Кбит/сек
Максимальный битрейт : 338 Кбит/сек
Каналы : 6 каналов
Channel layout : L R C LFE Ls Rs
Частота : 48,0 КГц
Частота кадров : 31,250 кадров/сек (1536 SPF)
Метод сжатия : С потерями
Размер потока : 554 Мбайт (2%)
Заголовок : Russian Dub EAC3 5.1 ch
Язык : Russian
Service kind : Complete Main
Default : Нет
Alternate group : 1
Дата пометки : UTC 2021-03-19 16:26:16

Аудио #3
Идентификатор : 4
Формат : E-AC-3 JOC
Формат/Информация : Enhanced AC-3 with Joint Object Coding
Коммерческое название : Dolby Digital Plus with Dolby Atmos
Идентификатор кодека : ec-3
Продолжительность : 4 ч. 2 м.
Вид битрейта : Постоянный
Битрейт : 768 Кбит/сек
Максимальный битрейт : 811 Кбит/сек
Каналы : 6 каналов
Channel layout : L R C LFE Ls Rs
Частота : 48,0 КГц
Частота кадров : 31,250 кадров/сек (1536 SPF)
Метод сжатия : С потерями
Размер потока : 1,30 Гбайт (4%)
Заголовок : English EAC3+Atmos 5.1 ch
Язык : English
Service kind : Complete Main
Default : Нет
Alternate group : 1
Дата пометки : UTC 2021-03-19 16:26:16
Complexity index : Not present / 16
Number of dynamic objects : 15
Bed channel count : 1 канал
Bed channel configuration : LFE

Текст #1
Идентификатор : 5
Формат : Timed Text
Идентификатор кодека : tx3g
Продолжительность : 3 ч. 34 м.
Вид битрейта : Переменный
Битрейт : 0 бит/сек
Размер потока : 606 байт (0%)
Заголовок : Forced
Язык : Russian
Forced : Да
Дата кодирования : UTC 2021-03-19 16:26:16
Дата пометки : UTC 2021-03-19 16:26:16

Текст #2
Идентификатор : 6
Формат : Timed Text
Идентификатор кодека : tx3g
Продолжительность : 3 ч. 53 м.
Вид битрейта : Переменный
Битрейт : 58 бит/сек
Размер потока : 100,0 Кбайт (0%)
Заголовок : Full
Язык : Russian
Forced : Нет
Дата кодирования : UTC 2021-03-19 16:26:16
Дата пометки : UTC 2021-03-19 16:26:16

Текст #3
Идентификатор : 7
Формат : Timed Text
Идентификатор кодека : tx3g
Продолжительность : 4 ч. 0 м.
Вид битрейта : Переменный
Битрейт : 34 бит/сек
Размер потока : 60,7 Кбайт (0%)
Заголовок : Full
Язык : English
Forced : Нет
Дата кодирования : UTC 2021-03-19 16:26:16
Дата пометки : UTC 2021-03-19 16:26:16

Невозможно получить скрины с нормальными цветами с PC, так как невозможно захватить кадр слоя DV если в видеоряде отсутствуют метаданные HDR.


Скрыт Profile PM
Показать сообщения:    
Ответить на тему

Текущее время: 22-Апр 16:59

Часовой пояс: GMT + 3



Вы не можете начинать темы
Вы не можете отвечать на сообщения
Вы не можете редактировать свои сообщения
Вы не можете удалять свои сообщения
Вы не можете голосовать в опросах
Вы не можете прикреплять файлы к сообщениям
Вы не можете скачивать файлы
Рейтинг торрент трекеров - UpTracker.ru Яндекс.Метрика
службы мониторинга серверов