Loading...
Error

(Шансон/Народные песни) VA - Созвездие хитов - Народный Шансон (3 CD) - 2009, APE (image+.cue), lossless

Ответить на тему
 
Автор Сообщение

Игорёче-че-к

Стаж: 10 лет

Сообщений: 235

Откуда: Смоленская обл., г. Десногорск

СССР

Режим только чтение: НЕТ

post 19-Дек-2009 10:30

Quote

Various Artists - Созвездие хитов - Народный Шансон

Жанр: Шансон/Народные песни
Год выпуска диска: 2009
Производитель диска: Россия "Ридерз Дайджест"
Аудио кодек: APE
Тип рипа: (image + .cue)
Битрейт аудио: lossless
Продолжительность: 03:05:33
Трэклист:
01. Мар Дяньдя
02. Маменька
03. Джелем, джелем
04. Ой, мама,мама
05. Ручеёк
06. Кай ёне
07. Егорушка
08. Мороза не боюсь
09. Хоп-хоп
10. Две гитары
11. Мар-мар
12. Побудь со мной
13. Одэвэс
14. Цоха
15. Невечерняя
16. Прогея
17. Ту балвал
18. Величальная
19. Мар Дяньдя - Русска Рома (видео)
Exact Audio Copy V0.99 prebeta 5 from 4. May 2009

Отчёт EAC об извлечении, выполненном 19. декабря 2009, 4:31

Various / Народный Шансон - Цыганские песни

Дисковод: TSSTcorpCDDVDW SH-S223L Adapter: 2 ID: 1

Режим чтения : Достоверность
Использование точного потока : Да
Отключение кэша аудио : Да
Использование указателей C2 : Нет

Коррекция смещения при чтении : 6
Способность читать области Lead-in и Lead-out : Нет
Заполнение пропущенных сэмплов тишиной : Да
Удаление блоков с тишиной в начале и конце : Нет
При вычислениях CRC использовались нулевые сэмплы : Да
Интерфейс : Встроенный Win32-интерфейс для Win NT/2000

Выходной формат : Внутренние WAV-операции
Формат сэмплов : 44.100 Гц; 16 бит; стерео

TOC извлечённого CD

Трек | Старт | Длительность | Начальный сектор | Конечный сектор
---------------------------------------------------------------------
1 | 0:00.00 | 3:23.45 | 0 | 15269
2 | 3:23.45 | 2:33.42 | 15270 | 26786
3 | 5:57.12 | 4:12.25 | 26787 | 45711
4 | 10:09.37 | 3:16.29 | 45712 | 60440
5 | 13:25.66 | 2:20.50 | 60441 | 70990
6 | 15:46.41 | 2:51.00 | 70991 | 83815
7 | 18:37.41 | 3:22.30 | 83816 | 98995
8 | 21:59.71 | 2:15.29 | 98996 | 109149
9 | 24:15.25 | 2:29.56 | 109150 | 120380
10 | 26:45.06 | 3:48.48 | 120381 | 137528
11 | 30:33.54 | 2:54.50 | 137529 | 150628
12 | 33:28.29 | 2:55.70 | 150629 | 163823
13 | 36:24.24 | 2:17.58 | 163824 | 174156
14 | 38:42.07 | 2:45.32 | 174157 | 186563
15 | 41:27.39 | 4:28.27 | 186564 | 206690
16 | 45:55.66 | 3:26.50 | 206691 | 222190
17 | 49:22.41 | 2:30.11 | 222191 | 233451
18 | 51:52.52 | 2:06.65 | 233452 | 242966
19 | 56:31.42 | 4:41.68 | 254367 | 275509

Характеристики диапазона извлечения и сообщения об ошибках

Выбранный диапазон

Имя файла D:\Игорёче-че-к\Релизы\Созвездие хитов - Народный Шансон\Цыганские песни (CD 1)\Various - Народный Шансон - Цыганские песни.wav

Пиковый уровень 97.7 %
Качество диапазона 100.0 %
CRC копии AE8F53D0
Копирование... OK

Ошибок не произошло

AccurateRip: сводка

Трек 1 нет в базе данных
Трек 2 нет в базе данных
Трек 3 нет в базе данных
Трек 4 нет в базе данных
Трек 5 нет в базе данных
Трек 6 нет в базе данных
Трек 7 нет в базе данных
Трек 8 нет в базе данных
Трек 9 нет в базе данных
Трек 10 нет в базе данных
Трек 11 нет в базе данных
Трек 12 нет в базе данных
Трек 13 нет в базе данных
Трек 14 нет в базе данных
Трек 15 нет в базе данных
Трек 16 нет в базе данных
Трек 17 нет в базе данных
Трек 18 нет в базе данных

Ни одного трека нет в базе AccurateRip

Конец отчёта
01. Арсен Петросов - Кайфуем
02. Coupe - Оля-ля-ля
03. Альви и Игорь Шиянов - Тишина
04. Руслан Набиев - По ресторанам
05. Эльза - Жёлтая луна (Dance Version)
06. Шамхан - Только там (Dance Version)
07. Исубилав Мусаев - Я еду в горы
08. Хардай - Небо
09. Sultan-Uragan и Лилу - Дождик
10. Айдамир Эльдаров - Хожу хмельной
11. Астемир Апанасов - Чего ещё ты хочешь?
12. Эльза - Не ищи меня
13. Хардай - Друзья
14. Вячеслав Евтых - Чайки стонут
15. Айдамир Эльдаров - Новая Адиюх
16. Ширвани Мурдалов - Твоё окно
17. Шерип Джебраилов - Ветер
Exact Audio Copy V0.99 prebeta 5 from 4. May 2009

Отчёт EAC об извлечении, выполненном 19. декабря 2009, 5:03

Various / Народный Шансон - Южный шансон

Дисковод: TSSTcorpCDDVDW SH-S223L Adapter: 2 ID: 1

Режим чтения : Достоверность
Использование точного потока : Да
Отключение кэша аудио : Да
Использование указателей C2 : Нет

Коррекция смещения при чтении : 6
Способность читать области Lead-in и Lead-out : Нет
Заполнение пропущенных сэмплов тишиной : Да
Удаление блоков с тишиной в начале и конце : Нет
При вычислениях CRC использовались нулевые сэмплы : Да
Интерфейс : Встроенный Win32-интерфейс для Win NT/2000

Выходной формат : Внутренние WAV-операции
Формат сэмплов : 44.100 Гц; 16 бит; стерео

TOC извлечённого CD

Трек | Старт | Длительность | Начальный сектор | Конечный сектор
---------------------------------------------------------------------
1 | 0:00.00 | 3:15.56 | 0 | 14680
2 | 3:15.56 | 4:16.49 | 14681 | 33929
3 | 7:32.30 | 4:10.31 | 33930 | 52710
4 | 11:42.61 | 3:11.23 | 52711 | 67058
5 | 14:54.09 | 5:17.34 | 67059 | 90867
6 | 20:11.43 | 4:16.14 | 90868 | 110081
7 | 24:27.57 | 3:52.15 | 110082 | 127496
8 | 28:19.72 | 4:46.69 | 127497 | 149015
9 | 33:06.66 | 3:26.17 | 149016 | 164482
10 | 36:33.08 | 5:06.07 | 164483 | 187439
11 | 41:39.15 | 2:32.26 | 187440 | 198865
12 | 44:11.41 | 3:32.47 | 198866 | 214812
13 | 47:44.13 | 3:44.33 | 214813 | 231645
14 | 51:28.46 | 4:28.52 | 231646 | 251797
15 | 55:57.23 | 3:58.31 | 251798 | 269678
16 | 59:55.54 | 3:30.59 | 269679 | 285487
17 | 63:26.38 | 4:07.35 | 285488 | 304047

Характеристики диапазона извлечения и сообщения об ошибках

Выбранный диапазон

Имя файла D:\Игорёче-че-к\Релизы\Созвездие хитов - Народный Шансон\Южный шансон (CD 2)\Various - Народный Шансон - Южный шансон.wav

Пиковый уровень 100.0 %
Качество диапазона 100.0 %
CRC копии 06AB3964
Копирование... OK

Ошибок не произошло

AccurateRip: сводка

Трек 1 нет в базе данных
Трек 2 нет в базе данных
Трек 3 нет в базе данных
Трек 4 нет в базе данных
Трек 5 нет в базе данных
Трек 6 нет в базе данных
Трек 7 нет в базе данных
Трек 8 нет в базе данных
Трек 9 нет в базе данных
Трек 10 нет в базе данных
Трек 11 нет в базе данных
Трек 12 нет в базе данных
Трек 13 нет в базе данных
Трек 14 нет в базе данных
Трек 15 нет в базе данных
Трек 16 нет в базе данных
Трек 17 нет в базе данных

Ни одного трека нет в базе AccurateRip

Конец отчёта
01. гр. Дальний свет - Ирэн
02. И. Круг - После дождя
03. М. Круг, В. Цыганова - Приходите в мой дом
04. В. Королёв - Бокал любви
05. И. Слуцкий - Калина красная
06. Трофим - Снегири
07. Е. Чужой - Журавли
08. И. Кучин - Не уходи
09. Кабриолет - Кусаю руки
10. В. Черняков - За друзей
11. М. Круг, В. Цыганова - Постой душа
12. гр. Пятилетка - Богом прощённые
13. И. Слуцкий - Холода
14. С. Любавин - Застольная
15. В. Калина - Гармонь-подруга
16. Жека - Ля-минор
17. Я. Павлова, М. Шуфутинский - Северная весна
18. гр. Дальний свет - Был парень
Exact Audio Copy V0.99 prebeta 5 from 4. May 2009

Отчёт EAC об извлечении, выполненном 19. декабря 2009, 5:41

Various / Народный Шансон - Шансон Vol. 8

Дисковод: TSSTcorpCDDVDW SH-S223L Adapter: 2 ID: 1

Режим чтения : Достоверность
Использование точного потока : Да
Отключение кэша аудио : Да
Использование указателей C2 : Нет

Коррекция смещения при чтении : 6
Способность читать области Lead-in и Lead-out : Нет
Заполнение пропущенных сэмплов тишиной : Да
Удаление блоков с тишиной в начале и конце : Нет
При вычислениях CRC использовались нулевые сэмплы : Да
Интерфейс : Встроенный Win32-интерфейс для Win NT/2000

Выходной формат : Внутренние WAV-операции
Формат сэмплов : 44.100 Гц; 16 бит; стерео

TOC извлечённого CD

Трек | Старт | Длительность | Начальный сектор | Конечный сектор
---------------------------------------------------------------------
1 | 0:00.00 | 3:26.19 | 0 | 15468
2 | 3:26.19 | 3:57.53 | 15469 | 33296
3 | 7:23.72 | 3:42.36 | 33297 | 49982
4 | 11:06.33 | 4:19.15 | 49983 | 69422
5 | 15:25.48 | 4:15.16 | 69423 | 88563
6 | 19:40.64 | 2:56.00 | 88564 | 101763
7 | 22:36.64 | 3:17.02 | 101764 | 116540
8 | 25:53.66 | 3:29.31 | 116541 | 132246
9 | 29:23.22 | 4:41.22 | 132247 | 153343
10 | 34:04.44 | 4:17.08 | 153344 | 172626
11 | 38:21.52 | 4:24.10 | 172627 | 192436
12 | 42:45.62 | 5:04.28 | 192437 | 215264
13 | 47:50.15 | 4:18.52 | 215265 | 234666
14 | 52:08.67 | 3:41.71 | 234667 | 251312
15 | 55:50.63 | 4:12.05 | 251313 | 270217
16 | 60:02.68 | 4:11.14 | 270218 | 289056
17 | 64:14.07 | 3:31.02 | 289057 | 304883
18 | 67:45.09 | 4:12.60 | 304884 | 323843

Характеристики диапазона извлечения и сообщения об ошибках

Выбранный диапазон

Имя файла D:\Игорёче-че-к\Релизы\Созвездие хитов - Народный Шансон\Шансон Vol. 8 (CD 3)\Various - Народный Шансон - Шансон Vol. 8.wav

Пиковый уровень 100.0 %
Качество диапазона 100.0 %
CRC копии 75579A27
Копирование... OK

Ошибок не произошло

AccurateRip: сводка

Трек 1 нет в базе данных
Трек 2 нет в базе данных
Трек 3 нет в базе данных
Трек 4 нет в базе данных
Трек 5 нет в базе данных
Трек 6 нет в базе данных
Трек 7 нет в базе данных
Трек 8 нет в базе данных
Трек 9 нет в базе данных
Трек 10 нет в базе данных
Трек 11 нет в базе данных
Трек 12 нет в базе данных
Трек 13 нет в базе данных
Трек 14 нет в базе данных
Трек 15 нет в базе данных
Трек 16 нет в базе данных
Трек 17 нет в базе данных
Трек 18 нет в базе данных

Ни одного трека нет в базе AccurateRip

Конец отчёта
Доп. информация:
2009 ООО "Мегалайнер".
Данная компиляция (с) 2009 ООО "Мегалайнер".
Все права защищены, незаконное тиражирование, копирование и публичная трансляция - запрещены.
Эксклюзивный дистрибьютор компакт-дисков компаниия "Мегалайнер".
Снимки обложек дискетницы и лицевой стороны диска, в папке Covers


Последний раз редактировалось: Игорёче-че-к (28-01-2010 21:34), всего редактировалось 7 раз(а)
Вне форума Profile PM

Игорёче-че-к

Стаж: 10 лет

Сообщений: 235

Откуда: Смоленская обл., г. Десногорск

СССР

Режим только чтение: НЕТ

post 19-Дек-2009 10:39 (спустя 9 минут)

Quote

- Всех с наступающим, беспробудным от веселья, праздником!!!

- Обращу пристальное внимание, некоторых умников, чтобы избежать дальнейших скабрёзных и профанированных шуточек! На CD 1 - Цыганские песни , 16 композиция, название которой - Прогея, ничего общего не имеет, с нетрадиционной ориентацией!!! Это не опечатка, данное слово пишется слитно (это имя), а не то что некоторые подумали, простите - виноват, так как к этому числу, можно было причислить и меня, греш Embarassed ного!!!

_________________
Вне форума Profile PM

Old Librarian

Стаж: 10 лет

Сообщений: 826

Откуда: Ростов-на-Дону

Россия

Режим только чтение: НЕТ

post 19-Дек-2009 11:23 (спустя 44 минуты)

Quote

Игорёче-че-к

Спасибо, что откликнулись на приглашение, за релиз и за поздравление!
Вас тоже с наступающими праздниками!
Добро пожаловать на трекер!
az
Вне форума Profile PM
Показать сообщения:    
Ответить на тему

Текущее время: 28-Мар 15:40

Часовой пояс: GMT + 3



Вы не можете начинать темы
Вы не можете отвечать на сообщения
Вы не можете редактировать свои сообщения
Вы не можете удалять свои сообщения
Вы не можете голосовать в опросах
Вы не можете прикреплять файлы к сообщениям
Вы не можете скачивать файлы
Рейтинг торрент трекеров - UpTracker.ru Анализ веб сайта Яндекс.Метрика
службы мониторинга серверов