Loading...
Error

(Pop/Disco) VA - Музыка любви (CD 5) - 2008, APE (image+.cue), lossless

Ответить на тему
 
Автор Сообщение

Игорёче-че-к

Стаж: 9 лет 8 месяцев

Сообщений: 235

Откуда: Смоленская обл., г. Десногорск

СССР

Режим только чтение: НЕТ

post 24-Дек-2009 06:13

Quote

Various Artists - Музыка любви (CD 5)

Жанр: Pop/Disco
Год выпуска диска: 2008
Производитель диска: Россия "Ридерз Дайджест"
Аудио кодек: APE
Тип рипа: (image + .cue)
Битрейт аудио: lossless
Продолжительность: 05:50:46
Трэклист:
01. The Captain & Tennille - You Are So Beautiful (2:40)
02. The Korgis - Woman (3:44)
03. Bonnie Tyler - Sometimes When We Touch (4:18)
04. Shirley Bassey - The Wind Beneath My Wings (4:20)
05. Bill and Diana Lee - Somethin' Stupid (2:48)
06. Billie Jo Spears - I Don't Want To Talk About It (3:16)
07. The Korgis - If I Had You (3:59)
08. Josй Feliciano - Jealous Guy (4:52)
09. Mary Carewe - The Rose (3:31)
10. John Baker - If Tomorrow Never Comes (3:22)
11. Jane McDonald - How Do I Live (3:56)
12. The Korgis - Just When I Needed You Most (4:12)
13. Shirley Bassey - I Want To Know What Love Is (4:58)
14. John Baker - Have You Ever Really Loved A Woman (3:38)
15. Gloria Gaynor - Careless Whisper (5:46)
16. Josй Feliciano - Right Here Waiting (4:26)
17. Shirley Bassey - The Power of Love (4:36)
18. Cliff Richard and Vincenzo La Scola - My Love (5:18)
Exact Audio Copy V0.99 prebeta 5 from 4. May 2009

Отчёт EAC об извлечении, выполненном 7. декабря 2009, 7:22

Various / Музыка любви - Сила любви

Дисковод: TSSTcorpCDDVDW SH-S223L Adapter: 2 ID: 1

Режим чтения : Достоверность
Использование точного потока : Да
Отключение кэша аудио : Да
Использование указателей C2 : Нет

Коррекция смещения при чтении : 6
Способность читать области Lead-in и Lead-out : Нет
Заполнение пропущенных сэмплов тишиной : Да
Удаление блоков с тишиной в начале и конце : Нет
При вычислениях CRC использовались нулевые сэмплы : Да
Интерфейс : Встроенный Win32-интерфейс для Win NT/2000

Выходной формат : Внутренние WAV-операции
Формат сэмплов : 44.100 Гц; 16 бит; стерео

TOC извлечённого CD

Трек | Старт | Длительность | Начальный сектор | Конечный сектор
---------------------------------------------------------------------
1 | 0:00.00 | 2:40.29 | 0 | 12028
2 | 2:40.29 | 3:43.61 | 12029 | 28814
3 | 6:24.15 | 4:17.59 | 28815 | 48148
4 | 10:41.74 | 4:20.07 | 48149 | 67655
5 | 15:02.06 | 2:48.18 | 67656 | 80273
6 | 17:50.24 | 3:15.44 | 80274 | 94942
7 | 21:05.68 | 3:58.72 | 94943 | 112864
8 | 25:04.65 | 4:52.26 | 112865 | 134790
9 | 29:57.16 | 3:30.40 | 134791 | 150580
10 | 33:27.56 | 3:22.01 | 150581 | 165731
11 | 36:49.57 | 3:55.55 | 165732 | 183411
12 | 40:45.37 | 4:12.29 | 183412 | 202340
13 | 44:57.66 | 4:58.16 | 202341 | 224706
14 | 49:56.07 | 3:37.61 | 224707 | 241042
15 | 53:33.68 | 5:46.36 | 241043 | 267028
16 | 59:20.29 | 4:25.51 | 267029 | 286954
17 | 63:46.05 | 4:35.74 | 286955 | 307653
18 | 68:22.04 | 5:18.42 | 307654 | 331545

Характеристики диапазона извлечения и сообщения об ошибках

Выбранный диапазон

Имя файла D:\Игорёче-че-к\Релизы\Музыка любви\Сила любви (CD 1)\Various - Музыка любви - Сила любви.wav

Пиковый уровень 96.6 %
Качество диапазона 100.0 %
CRC теста A13B85ED
CRC копии A13B85ED
Копирование... OK

Ошибок не произошло

Конец отчёта
Started at: понедельник, 07. 12. 2009. - 9:59.31
1 file found

1 -===- D:\Игорёче-че-к\Релизы\Музыка любви\Сила любви (CD 1)\Various - Музыка любви - Сила любви.wav
Conclusion: this track is CDDA with probability 100%

Finished at: понедельник, 07. 12. 2009. - 10:15.06 (operation time: 0:15.35)
01. Frankie Vaughan - I Get A Kick Out Of You (3:25)
02. Helen Forrest - My Funny Valentine (3:57)
03. The Captain & Tennille - Unforgettable (4:03)
04. Crystal Gayle - It Had To Be You (4:10)
05. Ken Barrie - Mona Lisa (4:23)
06. Helen Forrest - I Only Have Eyes for You (2:11)
07. Engelbert Humperdinck - You'll Never Know (2:51)
08. Margaret Whiting - Fly Me to the Moon (2:29)
09. Tony Bennett - Blue Moon (2:16)
10. Judy Collins - Plaisir d'amour (4:49)
11. Glen Campbell - And I Love You So (3:13)
12. Vic Damone - What Now My Love (3:18)
13. Rosemary Clooney - Sentimental Journey (4:27)
14. John Denver - Annie's Song (3:10)
15. Des O'Connor - Spanish Eyes (3:57)
16. The Captain & Tennille - Unchained Melody (3:43)
17. Rosemary Squires - You Needed Me (3:38)
18. Des O'Connor - Strangers in the Night (3:14)
19. Rita Coolidge - For the Good Times (5:18)
Exact Audio Copy V0.99 prebeta 5 from 4. May 2009

Отчёт EAC об извлечении, выполненном 7. декабря 2009, 6:59

Various / Музыка любви - Сентиментальное путешествие

Дисковод: TSSTcorpCDDVDW SH-S223L Adapter: 2 ID: 1

Режим чтения : Достоверность
Использование точного потока : Да
Отключение кэша аудио : Да
Использование указателей C2 : Нет

Коррекция смещения при чтении : 6
Способность читать области Lead-in и Lead-out : Нет
Заполнение пропущенных сэмплов тишиной : Да
Удаление блоков с тишиной в начале и конце : Нет
При вычислениях CRC использовались нулевые сэмплы : Да
Интерфейс : Встроенный Win32-интерфейс для Win NT/2000

Выходной формат : Внутренние WAV-операции
Формат сэмплов : 44.100 Гц; 16 бит; стерео

TOC извлечённого CD

Трек | Старт | Длительность | Начальный сектор | Конечный сектор
---------------------------------------------------------------------
1 | 0:00.00 | 3:25.00 | 0 | 15374
2 | 3:25.00 | 3:56.66 | 15375 | 33140
3 | 7:21.66 | 4:02.49 | 33141 | 51339
4 | 11:24.40 | 4:10.22 | 51340 | 70111
5 | 15:34.62 | 4:22.49 | 70112 | 89810
6 | 19:57.36 | 2:10.61 | 89811 | 99621
7 | 22:08.22 | 2:51.01 | 99622 | 112447
8 | 24:59.23 | 2:28.57 | 112448 | 123604
9 | 27:28.05 | 2:15.48 | 123605 | 133777
10 | 29:43.53 | 4:48.53 | 133778 | 155430
11 | 34:32.31 | 3:13.05 | 155431 | 169910
12 | 37:45.36 | 3:17.53 | 169911 | 184738
13 | 41:03.14 | 4:26.52 | 184739 | 204740
14 | 45:29.66 | 3:09.45 | 204741 | 218960
15 | 48:39.36 | 3:56.73 | 218961 | 236733
16 | 52:36.34 | 3:43.20 | 236734 | 253478
17 | 56:19.54 | 3:38.01 | 253479 | 269829
18 | 59:57.55 | 3:14.17 | 269830 | 284396
19 | 63:11.72 | 5:18.01 | 284397 | 308247

Характеристики диапазона извлечения и сообщения об ошибках

Выбранный диапазон

Имя файла D:\Игорёче-че-к\Релизы\Музыка любви\Сентиментальное путешествие (CD 2)\Various - Музыка любви - Сентиментальное путешествие.wav

Пиковый уровень 96.6 %
Качество диапазона 100.0 %
CRC теста 4FFE1BF5
CRC копии 4FFE1BF5
Копирование... OK

Ошибок не произошло

Конец отчёта
Started at: понедельник, 07. 12. 2009. - 9:35.26
1 file found

1 -===- D:\Игорёче-че-к\Релизы\Музыка любви\Сентиментальное путешествие (CD 2)\Various - Музыка любви - Сентиментальное путешествие.wav
Conclusion: this track is CDDA with probability 100%

Finished at: понедельник, 07. 12. 2009. - 9:50.57 (operation time: 0:15.30)
01. Michael Maguire - Maria, from 'West Side Story' (2:52)
02. Placido Domingo & Carly Simon - The Last Night of the World, from 'Miss Saigon' (5:09)
03. Shirley Bassey - All I Ask of You, from 'The Phantom Of The Opera' (3:58)
04. John Dulieu - Love Changes Everything, from 'Aspects Of Love' (3:11)
05. Mary Carewe - My Man, from 'Lady Sings the Blues' and 'Funny Girl' (2:53)
06. Steve Clayton - Love Me Tender - Theme Song (2:23)
07. Salena Jones - True Love, from 'High Society' (3:09)
08. Vic Damone - More, from 'Mondo Cane' (3:59)
09. Dusty Springfield - Sea And Sky, from "Time For Loving" (2:13)
10. Mary Carewe - Do You Know Where You're Going To, Love Theme from 'Mahogany' (3:22)
11. Vic Damone - A Time for Us, from 'Romeo and Juliet' (3:24)
12. Mary Carewe - I Will Wait for You, from 'The Umbrellas of Cherbourg' (3:07)
13. Vince Hill - Evergreen, from 'A Star Is Born' (2:47)
14. Sylvia Cheyenne - The Song from 'Moulin Rouge' (2:26)
15. Engelbert Humperdinck - As Time Goes By, from "Casablanca" (3:25)
16. Petula Clark - (Everything I Do) I Do It For You, from 'Robin Hood, Prince of T (3:47)
17. Des O' Connor - She, from 'Notting Hill' (3:21)
18. Maureen McGovern - The Morning After, from 'The Poseidon Adventure' (2:37)
19. Jane McDonald - I Will Always Love You, from 'The Bodyguard' (4:35)
20. Mary Carewe - My Heart Will Go On, from 'Titanic' (4:36)
Exact Audio Copy V0.99 prebeta 5 from 4. May 2009

Отчёт EAC об извлечении, выполненном 7. декабря 2009, 7:51

Various / Музыка любви - Музыка любви в театре и кино

Дисковод: TSSTcorpCDDVDW SH-S223L Adapter: 2 ID: 1

Режим чтения : Достоверность
Использование точного потока : Да
Отключение кэша аудио : Да
Использование указателей C2 : Нет

Коррекция смещения при чтении : 6
Способность читать области Lead-in и Lead-out : Нет
Заполнение пропущенных сэмплов тишиной : Да
Удаление блоков с тишиной в начале и конце : Нет
При вычислениях CRC использовались нулевые сэмплы : Да
Интерфейс : Встроенный Win32-интерфейс для Win NT/2000

Выходной формат : Внутренние WAV-операции
Формат сэмплов : 44.100 Гц; 16 бит; стерео

TOC извлечённого CD

Трек | Старт | Длительность | Начальный сектор | Конечный сектор
---------------------------------------------------------------------
1 | 0:00.00 | 2:51.65 | 0 | 12889
2 | 2:51.65 | 5:08.72 | 12890 | 36061
3 | 8:00.62 | 3:58.09 | 36062 | 53920
4 | 11:58.71 | 3:11.25 | 53921 | 68270
5 | 15:10.21 | 2:53.03 | 68271 | 81248
6 | 18:03.24 | 2:22.63 | 81249 | 91961
7 | 20:26.12 | 3:08.58 | 91962 | 106119
8 | 23:34.70 | 3:59.01 | 106120 | 124045
9 | 27:33.71 | 2:13.18 | 124046 | 134038
10 | 29:47.14 | 3:22.21 | 134039 | 149209
11 | 33:09.35 | 3:24.37 | 149210 | 164546
12 | 36:33.72 | 3:07.09 | 164547 | 178580
13 | 39:41.06 | 2:46.40 | 178581 | 191070
14 | 42:27.46 | 2:25.70 | 191071 | 202015
15 | 44:53.41 | 3:24.69 | 202016 | 217384
16 | 48:18.35 | 3:46.43 | 217385 | 234377
17 | 52:05.03 | 3:21.00 | 234378 | 249452
18 | 55:26.03 | 2:36.74 | 249453 | 261226
19 | 58:03.02 | 4:34.59 | 261227 | 281835
20 | 62:37.61 | 4:35.71 | 281836 | 302531

Характеристики диапазона извлечения и сообщения об ошибках

Выбранный диапазон

Имя файла D:\Игорёче-че-к\Релизы\Музыка любви\Музыка любви в театре и кино (CD 3)\Various - Музыка любви - Музыка любви в театре и кино.wav

Подозрительная позиция 1:07:13

Пиковый уровень 96.5 %
Качество диапазона 99.9 %
CRC теста 1BA7D603
CRC копии 1BA7D603
Копирование... OK

Ошибок не произошло

Конец отчёта
Started at: понедельник, 07. 12. 2009. - 9:15.52
1 file found

1 -===- D:\Игорёче-че-к\Релизы\Музыка любви\Музыка любви в театре и кино (CD 3)\Various - Музыка любви - Музыка любви в театре и кино.wav
Conclusion: this track is CDDA with probability 100%

Finished at: понедельник, 07. 12. 2009. - 9:32.10 (operation time: 0:16.17)
01. Ken Barrie - Come Closer to Me (2:41)
02. Petula Clark - It's Magic (3:20)
03. Engelbert Humperdinck - Red Sails in the Sunset (3:05)
04. Mary Carewe - With All My Heart (2:59)
05. Frankie Avalon - Special Angel (2:54)
06. Vic Dana - Red Roses for a Blue Lady (2:46)
07. Vince Hill - You've Lost That Loving Feeling (4:18)
08. Glen Campbell - Without You (3:18)
09. Julie Rogers - When I Dream (3:44)
10. Vic Damone - It's Impossible (4:31)
11. Demis Roussos - Forever And Ever (3:41)
12. Petula Clark - Something (3:44)
13. The Korgis - Three Times a Lady (4:30)
14. Engelbert Humperdinck - The More I See You (4:04)
15. Kiki Dee - Amoureuse (4:08)
16. Tommy Blaize - Feel (4:13)
17. The Captain & Tennille - Do That To Me One More Time (4:19)
18. Ben Cramer - A Man Without Love (3:42)
19. Petula Clark - Your Song (3:40)
20. Vic Damone - Our Love Is Here To Stay (4:02)
Exact Audio Copy V0.99 prebeta 5 from 4. May 2009

Отчёт EAC об извлечении, выполненном 7. декабря 2009, 8:06

Various / Музыка любви - Музыка для двоих

Дисковод: TSSTcorpCDDVDW SH-S223L Adapter: 2 ID: 1

Режим чтения : Достоверность
Использование точного потока : Да
Отключение кэша аудио : Да
Использование указателей C2 : Нет

Коррекция смещения при чтении : 6
Способность читать области Lead-in и Lead-out : Нет
Заполнение пропущенных сэмплов тишиной : Да
Удаление блоков с тишиной в начале и конце : Нет
При вычислениях CRC использовались нулевые сэмплы : Да
Интерфейс : Встроенный Win32-интерфейс для Win NT/2000

Выходной формат : Внутренние WAV-операции
Формат сэмплов : 44.100 Гц; 16 бит; стерео

TOC извлечённого CD

Трек | Старт | Длительность | Начальный сектор | Конечный сектор
---------------------------------------------------------------------
1 | 0:00.00 | 2:40.41 | 0 | 12040
2 | 2:40.41 | 3:19.53 | 12041 | 27018
3 | 6:00.19 | 3:05.03 | 27019 | 40896
4 | 9:05.22 | 2:58.65 | 40897 | 54311
5 | 12:04.12 | 2:54.12 | 54312 | 67373
6 | 14:58.24 | 2:45.59 | 67374 | 79807
7 | 17:44.08 | 4:17.51 | 79808 | 99133
8 | 22:01.59 | 3:17.63 | 99134 | 113971
9 | 25:19.47 | 3:43.63 | 113972 | 130759
10 | 29:03.35 | 4:30.48 | 130760 | 151057
11 | 33:34.08 | 3:40.47 | 151058 | 167604
12 | 37:14.55 | 3:44.19 | 167605 | 184423
13 | 40:58.74 | 4:29.41 | 184424 | 204639
14 | 45:28.40 | 4:04.02 | 204640 | 222941
15 | 49:32.42 | 4:08.16 | 222942 | 241557
16 | 53:40.58 | 4:12.45 | 241558 | 260502
17 | 57:53.28 | 4:18.50 | 260503 | 279902
18 | 62:12.03 | 3:41.40 | 279903 | 296517
19 | 65:53.43 | 3:40.28 | 296518 | 313045
20 | 69:33.71 | 4:01.56 | 313046 | 331176

Характеристики диапазона извлечения и сообщения об ошибках

Выбранный диапазон

Имя файла D:\Игорёче-че-к\Релизы\Музыка любви\Музыка для двоих (CD 4)\Various - Музыка любви - Музыка для двоих.wav

Пиковый уровень 96.6 %
Качество диапазона 100.0 %
CRC теста 682E910E
CRC копии 682E910E
Копирование... OK

Ошибок не произошло

Конец отчёта
Started at: понедельник, 07. 12. 2009. - 8:56.57
1 file found

1 -===- D:\Игорёче-че-к\Релизы\Музыка любви\Музыка для двоих (CD 4)\Various - Музыка любви - Музыка для двоих.wav
Conclusion: this track is CDDA with probability 100%

Finished at: понедельник, 07. 12. 2009. - 9:12.47 (operation time: 0:15.50)
01. Anita Harris - What the World Needs Now Is Love (2:48)
02. Engelbert Humperdinck - You Belong to My Heart (3:43)
03. Demis Roussos - Mourir Auprиs De Mon Amour (4:23)
04. Petula Clark - Romeo (3:38)
05. Frankie Avalon - Venus (2:36)
06. Ben Cramer - That's Amore (3:05)
07. Nancy Holloway - I Wish You Love (3:43)
08. Glen Campbell - Bridge Over Troubled Water (4:39)
09. Anny Gйrard - Hymne а l'amour (If You Love Me) (2:50)
10. Engelbert Humperdinck - Stardust (2:36)
11. Petula Clark - La vie en rose (2:24)
12. Frankie Avalon - Let It Be Me (3:43)
13. Petula Clark - The First Time Ever I Saw Your Face (4:02)
14. Des O'Connor - Wonderful Tonight (3:18)
15. Josй Feliciano - Che sara (4:08)
16. The Korgis - To Love Somebody (3:40)
17. Brenda Lee - If You Love Me (Really Love Me) (Hymne а l'amour) (2:41)
18. Glen Campbell - You Don't Have to Say You Love Me (2:37)
19. Jane McDonald - You're My World (3:03)
20. Tony Alessi - Con te partirт (Time To Say Goodbye) (4:09)
Exact Audio Copy V0.99 prebeta 5 from 4. May 2009

Отчёт EAC об извлечении, выполненном 7. декабря 2009, 8:19

Various / Музыка любви - Весь мир поёт о любви

Дисковод: TSSTcorpCDDVDW SH-S223L Adapter: 2 ID: 1

Режим чтения : Достоверность
Использование точного потока : Да
Отключение кэша аудио : Да
Использование указателей C2 : Нет

Коррекция смещения при чтении : 6
Способность читать области Lead-in и Lead-out : Нет
Заполнение пропущенных сэмплов тишиной : Да
Удаление блоков с тишиной в начале и конце : Нет
При вычислениях CRC использовались нулевые сэмплы : Да
Интерфейс : Встроенный Win32-интерфейс для Win NT/2000

Выходной формат : Внутренние WAV-операции
Формат сэмплов : 44.100 Гц; 16 бит; стерео

TOC извлечённого CD

Трек | Старт | Длительность | Начальный сектор | Конечный сектор
---------------------------------------------------------------------
1 | 0:00.00 | 2:47.47 | 0 | 12571
2 | 2:47.47 | 3:42.68 | 12572 | 29289
3 | 6:30.40 | 4:23.31 | 29290 | 49045
4 | 10:53.71 | 3:37.66 | 49046 | 65386
5 | 14:31.62 | 2:36.30 | 65387 | 77116
6 | 17:08.17 | 3:05.17 | 77117 | 91008
7 | 20:13.34 | 3:43.08 | 91009 | 107741
8 | 23:56.42 | 4:38.39 | 107742 | 128630
9 | 28:35.06 | 2:50.11 | 128631 | 141391
10 | 31:25.17 | 2:35.39 | 141392 | 153055
11 | 34:00.56 | 2:24.05 | 153056 | 163860
12 | 36:24.61 | 3:43.28 | 163861 | 180613
13 | 40:08.14 | 4:02.35 | 180614 | 198798
14 | 44:10.49 | 3:18.17 | 198799 | 213665
15 | 47:28.66 | 4:07.49 | 213666 | 232239
16 | 51:36.40 | 3:40.00 | 232240 | 248739
17 | 55:16.40 | 2:41.13 | 248740 | 260827
18 | 57:57.53 | 2:36.65 | 260828 | 272592
19 | 60:34.43 | 3:03.37 | 272593 | 286354
20 | 63:38.05 | 4:09.02 | 286355 | 305031

Характеристики диапазона извлечения и сообщения об ошибках

Выбранный диапазон

Имя файла D:\Игорёче-че-к\Релизы\Музыка любви\Весь мир поёт о любви (CD 5)\Various - Музыка любви - Весь мир поёт о любви.wav

Пиковый уровень 96.5 %
Качество диапазона 99.9 %
CRC теста F01AFE74
CRC копии F01AFE74
Копирование... OK

Ошибок не произошло

Конец отчёта
Started at: понедельник, 07. 12. 2009. - 8:38.23
1 file found

1 -===- D:\Игорёче-че-к\Релизы\Музыка любви\Весь мир поёт о любви (CD 5)\Various - Музыка любви - Весь мир поёт о любви.wav
Conclusion: this track is CDDA with probability 99%

Finished at: понедельник, 07. 12. 2009. - 8:51.33 (operation time: 0:13.09)
Доп. информация:
- Музыка не нуждается в переводе, ибо она говорит душе...
Чувства, понятные и близкие всем, умиротворение и спокойствие, романтика дорогих воспоминаний… Незабываемые мелодии XX века помогут Вам перенестись в чарующий мир мечтательного настроения. Как только Вам захочется отдохнуть, 5 уникальных коллекций на 5 дисках предоставят такую возможность. Здесь и легендарная Бони Тайлер, и искрящийся музыкой Мулен Руж, и незабвенные композиции ДеБурга, Гершвина, Клэптона... и многое-многое другое. Не стесняйтесь нежности своей души и, когда не хватает слов, чтобы выразить свою любовь, позвольте музыке сделать это для Вас!
2008 ЗАО "Издательский Дом Ридерз Дайджест"
Производство копий , прокат, распространение и использование в коммерческих целях без согласия "Ридерз Дайджест" запрещается
Изготовлено: ООО "Сонопресс" 150049, Россия, Ярославль, ул. Свободы, 97. Лицензия ВАФ № 77-239 до 22.02.2011
Снимки обложек дискетницы и лицевой стороны диска, в папке Covers


Последний раз редактировалось: Игорёче-че-к (28-01-2010 21:03), всего редактировалось 5 раз(а)
Вне форума Profile PM

Игорёче-че-к

Стаж: 9 лет 8 месяцев

Сообщений: 235

Откуда: Смоленская обл., г. Десногорск

СССР

Режим только чтение: НЕТ

post 24-Дек-2009 06:16 (спустя 2 минуты)

Quote

- Всех с наступающим, беспробудным от веселья, праздником!!!

_________________
Вне форума Profile PM
Показать сообщения:    
Ответить на тему

Текущее время: 15-Сен 11:39

Часовой пояс: GMT + 3



Вы не можете начинать темы
Вы не можете отвечать на сообщения
Вы не можете редактировать свои сообщения
Вы не можете удалять свои сообщения
Вы не можете голосовать в опросах
Вы не можете прикреплять файлы к сообщениям
Вы не можете скачивать файлы
Рейтинг торрент трекеров - UpTracker.ru Анализ веб сайта Яндекс.Метрика
службы мониторинга серверов