Loading...
Error

(Chanson) Григорий Лепс - Спасибо, люди... - 2006, APE (image+.cue), lossless

Ответить на тему
 
Автор Сообщение

Игорёче-че-к

Стаж: 10 лет

Сообщений: 235

Откуда: Смоленская обл., г. Десногорск

СССР

Режим только чтение: НЕТ

post 25-Дек-2009 04:16

Quote

Григорий Лепс - Спасибо, люди...

Жанр: Chanson
Год выпуска диска: 2006
Производитель диска: Россия "Мистерия Паблишинг" MZ-129-2
Аудио кодек: APE
Тип рипа: image+.cue
Битрейт аудио: lossless
Продолжительность: 00:45:39
01. Крыса-ревность
02. Лето
03. Расскажи
04. Падают листья
05. Шелест 2001
06. Спокойной ночи, господа...
07. Медленный блюз
08. На дальний берег... (Романс)
09. Первый день рождения
10. Приказ
11. Ну и что
12. Bonus video (Крыса, Шелест, День рождения)
Exact Audio Copy V0.99 prebeta 5 from 4. May 2009

Отчёт EAC об извлечении, выполненном 23. декабря 2009, 15:12

Григорий Лепс / Спасибо, люди...

Дисковод: TSSTcorpCDDVDW SH-S223L Adapter: 2 ID: 0

Режим чтения : Достоверность
Использование точного потока : Да
Отключение кэша аудио : Да
Использование указателей C2 : Нет

Коррекция смещения при чтении : 6
Способность читать области Lead-in и Lead-out : Нет
Заполнение пропущенных сэмплов тишиной : Да
Удаление блоков с тишиной в начале и конце : Нет
При вычислениях CRC использовались нулевые сэмплы : Да
Интерфейс : Встроенный Win32-интерфейс для Win NT/2000

Выходной формат : Внутренние WAV-операции
Формат сэмплов : 44.100 Гц; 16 бит; стерео

TOC извлечённого CD

Трек | Старт | Длительность | Начальный сектор | Конечный сектор
---------------------------------------------------------------------
1 | 0:00.00 | 4:10.48 | 0 | 18797
2 | 4:10.48 | 4:29.10 | 18798 | 38982
3 | 8:39.58 | 5:46.73 | 38983 | 65005
4 | 14:26.56 | 3:37.43 | 65006 | 81323
5 | 18:04.24 | 4:01.11 | 81324 | 99409
6 | 22:05.35 | 5:31.07 | 99410 | 124241
7 | 27:36.42 | 4:13.35 | 124242 | 143251
8 | 31:50.02 | 4:48.08 | 143252 | 164859
9 | 36:38.10 | 4:49.35 | 164860 | 186569
10 | 41:27.45 | 4:12.08 | 186570 | 205477
11 | 45:39.53 | 5:37.65 | 205478 | 230817
12 | 53:49.43 | 13:49.24 | 242218 | 304416

Характеристики диапазона извлечения и сообщения об ошибках

Выбранный диапазон

Имя файла D:\Игорёче-че-к\Релизы\Grigoriy_Leps_-_Spasibo,_lyudi_\Григорий Лепс - Спасибо, люди\Григорий Лепс - Спасибо, люди....wav

Пиковый уровень 100.0 %
Качество диапазона 99.9 %
CRC копии 444E9C0F
Копирование... OK

Ошибок не произошло

Конец отчёта
Started at: среда, 23. 12. 2009. - 15:34.36
1 file found

1 -===- D:\Игорёче-че-к\Релизы\Grigoriy_Leps_-_Spasibo,_lyudi_\Григорий Лепс - Спасибо, люди\Григорий Лепс - Спасибо, люди....wav
Conclusion: this track is CDDA with probability 100%

Finished at: среда, 23. 12. 2009. - 15:42.28 (operation time: 0:07.51)
Доп. информация:
"РАО", 2006 г., "Первое Музыкальное Издательство"
"НААП" 2006г., "ЮрБИЗ"
"Мистерия Паблишинг"
Снимки обложек дискетницы и лицевой стороны диска, в папке Covers


Последний раз редактировалось: Игорёче-че-к (28-01-2010 20:58), всего редактировалось 5 раз(а)
Вне форума Profile PM

Игорёче-че-к

Стаж: 10 лет

Сообщений: 235

Откуда: Смоленская обл., г. Десногорск

СССР

Режим только чтение: НЕТ

post 25-Дек-2009 04:18 (спустя 2 минуты)

Quote

- Всех с наступающим, беспробудным от веселья, праздником!!!

_________________
Вне форума Profile PM
Показать сообщения:    
Ответить на тему

Текущее время: 28-Мар 15:51

Часовой пояс: GMT + 3



Вы не можете начинать темы
Вы не можете отвечать на сообщения
Вы не можете редактировать свои сообщения
Вы не можете удалять свои сообщения
Вы не можете голосовать в опросах
Вы не можете прикреплять файлы к сообщениям
Вы не можете скачивать файлы
Рейтинг торрент трекеров - UpTracker.ru Анализ веб сайта Яндекс.Метрика
службы мониторинга серверов