Loading...
Error

(Electronic/New Age) Gregorian - Masters of Chant - 1999, APE (image + .cue), lossless

Ответить на тему
 
Автор Сообщение

Игорёче-че-к

Стаж: 9 лет 9 месяцев

Сообщений: 235

Откуда: Смоленская обл., г. Десногорск

СССР

Режим только чтение: НЕТ

post 26-Дек-2009 21:42

Quote

Gregorian - Masters of Chant

Страна: Germany (Edel Records) 0058892ERE
Жанр: Electronic/New Age
Год выпуска: 1999
Формат: APE (image + .cue)
Битрейт аудио: lossless
Продолжительность: 00:01:06
01. Brothers In Arms (5:56)
Lyrics By, Composed By - Mark Knopfler
Other [Original Artist] - Dire Straits
02. Scarborough Fair (4:51)
Composed By - Art Garfunkel , Paul Simon
Lyrics By - Traditional
Other [Original Artist] - Simon & Garfunkel
03. Tears In Heaven (5:33)
Lyrics By, Composed By - Eric Clapton , Will Jennings
Other [Original Artist] - Eric Clapton
04. Still I'm Sad (4:59)
Other [Original Artist] - Yardbirds, The
Written-By - Paul Samwell-Smith
05. When A Man Loves A Woman (4:53)
Lyrics By, Composed By - Andrew Wright (4) , Calvin Lewis
Other [Original Artist] - Percy Sledge
06. Nothing Else Matters (6:15)
Lyrics By, Composed By - James Hetfield , Lars Ulrich
Other [Original Artist] - Metallica
07. Fade To Grey (4:19)
Lyrics By, Composed By - Billy Currie , Midge Ure
Other [Original Artist] - Visage
08. Losing My Religion (5:52)
Lyrics By, Composed By - Michael Mills , Michael Stipe , Peter Buck , William Berry
Other [Original Artist] - REM
09. Vienna (5:03)
Lyrics By, Composed By - Billy Currie , Christopher Allen , Midge Ure , Warren Cann
Other [Original Artist] - Ultravox
10. The Sound Of Silence (4:17)
Lyrics By, Composed By - Art Garfunkel , Paul Simon
Other [Original Artist] - Simon & Garfunkel
11. Sebastian (3:40)
Lyrics By, Composed By - Steve Harley
Other [Original Artist] - Steve Harley
12. Don't Give Up (6:28)
Lyrics By, Composed By - Peter Gabriel
Vocals [Uncredited] - Sarah Brightman
Exact Audio Copy V0.99 prebeta 5 from 4. May 2009

Отчёт EAC об извлечении, выполненном 26. декабря 2009, 19:00

Gregorian / Masters of Chant

Дисковод: TSSTcorpCDDVDW SH-S223L Adapter: 2 ID: 0

Режим чтения : Достоверность
Использование точного потока : Да
Отключение кэша аудио : Да
Использование указателей C2 : Нет

Коррекция смещения при чтении : 6
Способность читать области Lead-in и Lead-out : Нет
Заполнение пропущенных сэмплов тишиной : Да
Удаление блоков с тишиной в начале и конце : Нет
При вычислениях CRC использовались нулевые сэмплы : Да
Интерфейс : Встроенный Win32-интерфейс для Win NT/2000

Выходной формат : Внутренние WAV-операции
Формат сэмплов : 44.100 Гц; 16 бит; стерео

TOC извлечённого CD

Трек | Старт | Длительность | Начальный сектор | Конечный сектор
---------------------------------------------------------------------
1 | 0:00.00 | 5:56.40 | 0 | 26739
2 | 5:56.40 | 4:51.54 | 26740 | 48618
3 | 10:48.19 | 5:33.31 | 48619 | 73624
4 | 16:21.50 | 4:59.43 | 73625 | 96092
5 | 21:21.18 | 4:53.64 | 96093 | 118131
6 | 26:15.07 | 6:15.28 | 118132 | 146284
7 | 32:30.35 | 4:19.61 | 146285 | 165770
8 | 36:50.21 | 5:52.29 | 165771 | 192199
9 | 42:42.50 | 5:03.50 | 192200 | 214974
10 | 47:46.25 | 4:17.17 | 214975 | 234266
11 | 52:03.42 | 3:40.66 | 234267 | 250832
12 | 55:44.33 | 6:28.42 | 250833 | 279974

Характеристики диапазона извлечения и сообщения об ошибках

Выбранный диапазон

Имя файла D:\Игорёче-че-к\Релизы\Gregorian\Gregorian - Masters of Chant\Gregorian - Masters of Chant.wav

Пиковый уровень 97.5 %
Качество диапазона 100.0 %
CRC копии 5953613C
Копирование... OK

Ошибок не произошло

AccurateRip: сводка
Трек 1 нет в базе данных
Трек 2 нет в базе данных
Трек 3 нет в базе данных
Трек 4 нет в базе данных
Трек 5 нет в базе данных
Трек 6 нет в базе данных
Трек 7 нет в базе данных
Трек 8 нет в базе данных
Трек 9 нет в базе данных
Трек 10 нет в базе данных
Трек 11 нет в базе данных
Трек 12 нет в базе данных
Ни одного трека нет в базе AccurateRip

Конец отчёта
Started at: суббота, 26. 12. 2009. - 19:26.51
1 file found

1 -===- D:\Игорёче-че-к\Релизы\Gregorian\Gregorian - Masters of Chant\Gregorian - Masters of Chant.wav
Conclusion: this track is CDDA with probability 100%

Finished at: суббота, 26. 12. 2009. - 19:37.56 (operation time: 0:11.05)
Доп. информация: В подтверждение подлинности данного издания:
http://www.discogs.com/Gregorian-Masters-Of-Chant/release/468518
Снимки обложек дискетницы и лицевой стороны диска, в папке Covers

_________________


Последний раз редактировалось: Игорёче-че-к (28-01-2010 20:38), всего редактировалось 3 раз(а)
Вне форума Profile PM

Игорёче-че-к

Стаж: 9 лет 9 месяцев

Сообщений: 235

Откуда: Смоленская обл., г. Десногорск

СССР

Режим только чтение: НЕТ

post 26-Дек-2009 21:45 (спустя 3 минуты)

Quote

- Всех с наступающим, беспробудным от веселья, праздником!!!

_________________
Вне форума Profile PM
Показать сообщения:    
Ответить на тему

Текущее время: 16-Окт 01:46

Часовой пояс: GMT + 3



Вы не можете начинать темы
Вы не можете отвечать на сообщения
Вы не можете редактировать свои сообщения
Вы не можете удалять свои сообщения
Вы не можете голосовать в опросах
Вы не можете прикреплять файлы к сообщениям
Вы не можете скачивать файлы
Рейтинг торрент трекеров - UpTracker.ru Анализ веб сайта Яндекс.Метрика
службы мониторинга серверов