Loading...
Error

(Electronic/Rock) t.A.T.u. + Rammstein - Пружинки - 2004, APE (image + .cue), lossless

Ответить на тему
 
Автор Сообщение

Игорёче-че-к

Стаж: 9 лет 10 месяцев

Сообщений: 235

Откуда: Смоленская обл., г. Десногорск

СССР

Режим только чтение: НЕТ

post 26-Дек-2009 22:39

Quote

t.A.T.u. + Rammstein - Пружинки

Страна: Russia (ΟΟΟ «Mad Groundhog»)
Жанр: Electronic/Rock
Год выпуска: 2004
Формат: APE (image + .cue)
Битрейт аудио: lossless
Продолжительность: 00:30:17
01. t.A.T.u. + Rammstein - Ist Das Gut! (XXX Mix) (3:26)
02. t.A.T.u. + Rammstein - Пружинки (Ping Pon Mix) (4:03)
03. t.A.T.u. + Rammstein - Полчаса Без Тебя (Very Sad Mix) (4:30)
04. t.A.T.u. + Rammstein - Однo И Тo Же (Long Repeat Mix) (2:37)
05. t.A.T.u. + Rammstein - Links 2 Dry 4 (Very Clear Mix) (3:40)
06. t.A.T.u. + Rammstein - Ein Kleiner Mensch (Small Grave Mix) (3:28)
07. t.A.T.u. + Limp Bizkit - Я Сoшла (4:41)
08. Zемфира* + Rammstein - Трафик Солнца (3:36)
09. Zемфира* + Clawfinger - Мы Скучали (2:36)
Exact Audio Copy V0.99 prebeta 5 from 4. May 2009

Отчёт EAC об извлечении, выполненном 26. декабря 2009, 18:02

t.A.T.u. + Rammstein / Пружинки

Дисковод: TSSTcorpCDDVDW SH-S223L Adapter: 2 ID: 0

Режим чтения : Достоверность
Использование точного потока : Да
Отключение кэша аудио : Да
Использование указателей C2 : Нет

Коррекция смещения при чтении : 6
Способность читать области Lead-in и Lead-out : Нет
Заполнение пропущенных сэмплов тишиной : Да
Удаление блоков с тишиной в начале и конце : Нет
При вычислениях CRC использовались нулевые сэмплы : Да
Интерфейс : Встроенный Win32-интерфейс для Win NT/2000

Выходной формат : Внутренние WAV-операции
Формат сэмплов : 44.100 Гц; 16 бит; стерео

TOC извлечённого CD

Трек | Старт | Длительность | Начальный сектор | Конечный сектор
---------------------------------------------------------------------
1 | 0:00.00 | 3:28.24 | 0 | 15623
2 | 3:28.24 | 4:05.18 | 15624 | 34016
3 | 7:33.42 | 4:31.74 | 34017 | 54415
4 | 12:05.41 | 2:39.17 | 54416 | 66357
5 | 14:44.58 | 3:41.38 | 66358 | 82970
6 | 18:26.21 | 3:29.68 | 82971 | 98713
7 | 21:56.14 | 4:43.24 | 98714 | 119962
8 | 26:39.38 | 3:37.39 | 119963 | 136276
9 | 30:17.02 | 2:36.34 | 136277 | 148010

Характеристики диапазона извлечения и сообщения об ошибках

Выбранный диапазон

Имя файла D:\Игорёче-че-к\Релизы\t.A.T.u._+_Rammstein\t.A.T.u. + Rammstein - Пружинки\t.A.T.u. + Rammstein - Пружинки.wav

Пиковый уровень 89.1 %
Качество диапазона 99.9 %
CRC копии 1D82F915
Копирование... OK

Ошибок не произошло

AccurateRip: сводка
Трек 1 нет в базе данных
Трек 2 нет в базе данных
Трек 3 нет в базе данных
Трек 4 нет в базе данных
Трек 5 нет в базе данных
Трек 6 нет в базе данных
Трек 7 нет в базе данных
Трек 8 нет в базе данных
Трек 9 нет в базе данных
Ни одного трека нет в базе AccurateRip

Конец отчёта
Started at: суббота, 26. 12. 2009. - 18:04.34
1 file found

1 -===- D:\Игорёче-че-к\Релизы\t.A.T.u._+_Rammstein\t.A.T.u. + Rammstein - Пружинки\t.A.T.u. + Rammstein - Пружинки.wav
Conclusion: this track is CDDA with probability 100%

Finished at: суббота, 26. 12. 2009. - 18:09.39 (operation time: 0:05.05)
Доп. информация: В подтверждение подлинности данного издания:
http://www.discogs.com/tATu--Rammstein-Пружинки/release/694414
Βнимание! Φонограмма предназначена только для частного прослушивания.
Πубличное воспроизведение, копирование,аренда и передача в эфир категорически запрещены.
Производитель ΟΟΟ «Mad Groundhog» Russia
(c) & (p) 2004
Снимки обложек дискетницы и лицевой стороны диска, в папке Covers

_________________


Последний раз редактировалось: Игорёче-че-к (12-04-2010 02:16), всего редактировалось 9 раз(а)
Вне форума Profile PM

Игорёче-че-к

Стаж: 9 лет 10 месяцев

Сообщений: 235

Откуда: Смоленская обл., г. Десногорск

СССР

Режим только чтение: НЕТ

post 26-Дек-2009 22:41 (спустя 2 минуты)

Quote

- Всех с наступающим, беспробудным от веселья, праздником!!!

_________________
Вне форума Profile PM
Показать сообщения:    
Ответить на тему

Текущее время: 19-Окт 12:57

Часовой пояс: GMT + 3



Вы не можете начинать темы
Вы не можете отвечать на сообщения
Вы не можете редактировать свои сообщения
Вы не можете удалять свои сообщения
Вы не можете голосовать в опросах
Вы не можете прикреплять файлы к сообщениям
Вы не можете скачивать файлы
Рейтинг торрент трекеров - UpTracker.ru Анализ веб сайта Яндекс.Метрика
службы мониторинга серверов