Loading...
Error

(Авторская песня) VA - Возьмёмся за руки, друзья! (5 CD) (Б.Окуджава, Ю.Визбор, Т. и С.Никитины, А.Иващенко, В.Долина, Ю.Кукин, А.Городницкий, А.Галич, Ж.Бичевская, В.Высоцкий) - 2005, APE (image+.cue), lossless

Ответить на тему
 
Автор Сообщение

Игорёче-че-к

Стаж: 9 лет 8 месяцев

Сообщений: 235

Откуда: Смоленская обл., г. Десногорск

СССР

Режим только чтение: НЕТ

post 30-Дек-2009 08:06

Quote

Various Artists - Возьмёмся за руки, друзья!

Жанр: Авторская песня
Год выпуска диска: 2005
Исполнитель: Б.Окуджава, Ю.Визбор, Т. и С.Никитины, А.Иващенко, В.Долина, Ю.Кукин, А.Городницкий, А.Галич, Ж.Бичевская, В.Высоцкий
Производитель диска: Россия RM-CD14-B
Аудио кодек: APE
Тип рипа: image+.cue
Битрейт аудио: lossless
Трэклист:
01. Булат Окуджава - Песенка об Арбате
02. Булат Окуджава - Давайте восклицать!
03. Булат Окуджава - Дежурный по апрелю
04. Булат Окуджава- Полночный троллейбус
05. Булат Окуджава - Песенка о Моцарте
06. Булат Окуджава - Былое нельзя воротить
07. Булат Окуджава - Часовые любви
08. Булат Окуджава - На фоне Пушкина снимается семейство
09. Булат Окуджава - Надежды маленький оркестрик
10. Булат Окуджава - Вы слышите, грохочут сапоги...
11. Юрий Визбор - В Аркашиной квартире
12. Юрий Визбор - Фанские горы
13. Юрий Визбор - Милая моя
14. Юрий Визбор - Домбайский вальс
15. Юрий Визбор - Сретенский двор
16. Юрий Визбор - Сороколетие
17. Юрий Визбор - Мама, я хочу домой
18. Юрий Визбор - Артлото
19. Юрий Визбор - Здравствуй, здравствуй, я вернулся
20. Юрий Визбор - Телефон
Exact Audio Copy V0.99 prebeta 5 from 4. May 2009

Отчёт EAC об извлечении, выполненном 30. декабря 2009, 5:14

Б. Окуджава / Ю. Визбор / Часовые любви (CD 1)

Дисковод: TSSTcorpCDDVDW SH-S223L Adapter: 2 ID: 0

Режим чтения : Достоверность
Использование точного потока : Да
Отключение кэша аудио : Да
Использование указателей C2 : Нет

Коррекция смещения при чтении : 6
Способность читать области Lead-in и Lead-out : Нет
Заполнение пропущенных сэмплов тишиной : Да
Удаление блоков с тишиной в начале и конце : Нет
При вычислениях CRC использовались нулевые сэмплы : Да
Интерфейс : Встроенный Win32-интерфейс для Win NT/2000

Выходной формат : Внутренние WAV-операции
Формат сэмплов : 44.100 Гц; 16 бит; стерео

TOC извлечённого CD

Трек | Старт | Длительность | Начальный сектор | Конечный сектор
---------------------------------------------------------------------
1 | 0:00.00 | 2:38.31 | 0 | 11880
2 | 2:38.31 | 1:38.72 | 11881 | 19302
3 | 4:17.28 | 1:43.67 | 19303 | 27094
4 | 6:01.20 | 2:47.74 | 27095 | 39693
5 | 8:49.19 | 2:46.53 | 39694 | 52196
6 | 11:35.72 | 3:14.01 | 52197 | 66747
7 | 14:49.73 | 1:50.11 | 66748 | 75008
8 | 16:40.09 | 2:26.05 | 75009 | 85963
9 | 19:06.14 | 2:09.26 | 85964 | 95664
10 | 21:15.40 | 2:03.00 | 95665 | 104889
11 | 23:18.40 | 2:37.37 | 104890 | 116701
12 | 25:56.02 | 3:19.49 | 116702 | 131675
13 | 29:15.51 | 2:04.25 | 131676 | 141000
14 | 31:20.01 | 2:06.35 | 141001 | 150485
15 | 33:26.36 | 2:34.60 | 150486 | 162095
16 | 36:01.21 | 3:52.33 | 162096 | 179528
17 | 39:53.54 | 1:42.38 | 179529 | 187216
18 | 41:36.17 | 2:47.21 | 187217 | 199762
19 | 44:23.38 | 1:53.28 | 199763 | 208265
20 | 46:16.66 | 2:13.08 | 208266 | 218248

Характеристики диапазона извлечения и сообщения об ошибках

Выбранный диапазон

Имя файла D:\Игорёче-че-к\Релизы\The_Readers_Digest\Возьмёмся за руки, друзья!\Часовые любви (CD 1)\Б. Окуджава Ю. Визбор - Часовые любви (CD 1).wav

Пиковый уровень 100.0 %
Качество диапазона 100.0 %
CRC копии F76373BD
Копирование... OK

Ошибок не произошло

AccurateRip: сводка

Трек 1 нет в базе данных
Трек 2 нет в базе данных
Трек 3 нет в базе данных
Трек 4 нет в базе данных
Трек 5 нет в базе данных
Трек 6 нет в базе данных
Трек 7 нет в базе данных
Трек 8 нет в базе данных
Трек 9 нет в базе данных
Трек 10 нет в базе данных
Трек 11 нет в базе данных
Трек 12 нет в базе данных
Трек 13 нет в базе данных
Трек 14 нет в базе данных
Трек 15 нет в базе данных
Трек 16 нет в базе данных
Трек 17 нет в базе данных
Трек 18 нет в базе данных
Трек 19 нет в базе данных
Трек 20 нет в базе данных

Ни одного трека нет в базе AccurateRip

Конец отчёта
01. Т. и С. Никитины - Брич-Мулла
02. Т. и С. Никитины - Большой секрет для маленькой компании
03. Т. и С. Никитины - Диалог у новогодней елки
04. Т. и С. Никитины - Благодарю Вас навсегда
05. Т. и С. Никитины - Анри
06. Т. и С. Никитины - Снег идет
07. Т. и С. Никитины - Когда мы были молодые
08. Т. и С. Никитины - Резиновый ежик
09. Т. и С. Никитины - Нет лет
10. Т. и С. Никитины - Александра
11. Алексей Иващенко - Мне ничего не жаль
12. Алексей Иващенко - Родословная
13. Алексей Иващенко - Еще стрелу из колчана
14. Алексей Иващенко - Маленький экипаж
15. Алексей Иващенко - Земляничная поляна
16. Алексей Иващенко - Две капли на стакан воды
17. Алексей Иващенко - У магазина "Электроника"
18. Алексей Иващенко - Вальс возвращения
19. Алексей Иващенко - Мы жжем сердца охотой...
20. Алексей Иващенко - Я милую узнаю по походке
Exact Audio Copy V0.99 prebeta 5 from 4. May 2009

Отчёт EAC об извлечении, выполненном 30. декабря 2009, 5:26

Т. и С. Никитины / А. Иващенко / Александра (CD 2)

Дисковод: TSSTcorpCDDVDW SH-S223L Adapter: 2 ID: 0

Режим чтения : Достоверность
Использование точного потока : Да
Отключение кэша аудио : Да
Использование указателей C2 : Нет

Коррекция смещения при чтении : 6
Способность читать области Lead-in и Lead-out : Нет
Заполнение пропущенных сэмплов тишиной : Да
Удаление блоков с тишиной в начале и конце : Нет
При вычислениях CRC использовались нулевые сэмплы : Да
Интерфейс : Встроенный Win32-интерфейс для Win NT/2000

Выходной формат : Внутренние WAV-операции
Формат сэмплов : 44.100 Гц; 16 бит; стерео

TOC извлечённого CD

Трек | Старт | Длительность | Начальный сектор | Конечный сектор
---------------------------------------------------------------------
1 | 0:00.00 | 4:44.37 | 0 | 21336
2 | 4:44.37 | 3:05.27 | 21337 | 35238
3 | 7:49.64 | 2:40.71 | 35239 | 47309
4 | 10:30.60 | 3:45.32 | 47310 | 64216
5 | 14:16.17 | 3:29.10 | 64217 | 79901
6 | 17:45.27 | 2:55.20 | 79902 | 93046
7 | 20:40.47 | 5:04.00 | 93047 | 115846
8 | 25:44.47 | 2:33.42 | 115847 | 127363
9 | 28:18.14 | 4:23.38 | 127364 | 147126
10 | 32:41.52 | 3:41.16 | 147127 | 163717
11 | 36:22.68 | 2:29.10 | 163718 | 174902
12 | 38:52.03 | 3:36.28 | 174903 | 191130
13 | 42:28.31 | 1:58.22 | 191131 | 200002
14 | 44:26.53 | 1:57.69 | 200003 | 208846
15 | 46:24.47 | 3:22.54 | 208847 | 224050
16 | 49:47.26 | 2:20.37 | 224051 | 234587
17 | 52:07.63 | 2:01.34 | 234588 | 243696
18 | 54:09.22 | 2:28.57 | 243697 | 254853
19 | 56:38.04 | 2:53.14 | 254854 | 267842
20 | 59:31.18 | 2:29.73 | 267843 | 279090

Характеристики диапазона извлечения и сообщения об ошибках

Выбранный диапазон

Имя файла D:\Игорёче-че-к\Релизы\The_Readers_Digest\Возьмёмся за руки, друзья!\Александра (CD 2)\Т. и С. Никитины А. Иващенко - Александра (CD 2).wav

Пиковый уровень 99.4 %
Качество диапазона 100.0 %
CRC копии EDBAAEA0
Копирование... OK

Ошибок не произошло

AccurateRip: сводка

Трек 1 нет в базе данных
Трек 2 нет в базе данных
Трек 3 нет в базе данных
Трек 4 нет в базе данных
Трек 5 нет в базе данных
Трек 6 нет в базе данных
Трек 7 нет в базе данных
Трек 8 нет в базе данных
Трек 9 нет в базе данных
Трек 10 нет в базе данных
Трек 11 нет в базе данных
Трек 12 нет в базе данных
Трек 13 нет в базе данных
Трек 14 нет в базе данных
Трек 15 нет в базе данных
Трек 16 нет в базе данных
Трек 17 нет в базе данных
Трек 18 нет в базе данных
Трек 19 нет в базе данных
Трек 20 нет в базе данных

Ни одного трека нет в базе AccurateRip

Конец отчёта
01. Вероника Долина - Няня
02. Вероника Долина - А хочешь, я выучусь шить
03. Вероника Долина - Гололед
04. Вероника Долина - Разговор
05. Вероника Долина - Старики
06. Вероника Долина - Последняя песня
07. Вероника Долина - Пастораль
08. Вероника Долина - Лесничиха
09. Вероника Долина - Средневековый диалог
10. Вероника Долина - Легенда о сфинксе
11. Юрий Кукин - За туманом
12. Юрий Кукин- Париж
13. Юрий Кукин - Говоришь, чтоб остался я
14. Юрий Кукин - Гостиница
15. Юрий Кукин - Женская песня
16. Юрий Кукин - А все-таки жаль, что кончилось лето
17. Юрий Кукин - Маленький гном
18. Юрий Кукин - Солдат Киплинга
19. Юрий Кукин - Я губами солнце снял со щеки
20. Юрий Кукин - Темиртау
Exact Audio Copy V0.99 prebeta 5 from 4. May 2009

Отчёт EAC об извлечении, выполненном 30. декабря 2009, 5:36

В. Долина / Ю. Кукин / За туманом (CD 3)

Дисковод: TSSTcorpCDDVDW SH-S223L Adapter: 2 ID: 0

Режим чтения : Достоверность
Использование точного потока : Да
Отключение кэша аудио : Да
Использование указателей C2 : Нет

Коррекция смещения при чтении : 6
Способность читать области Lead-in и Lead-out : Нет
Заполнение пропущенных сэмплов тишиной : Да
Удаление блоков с тишиной в начале и конце : Нет
При вычислениях CRC использовались нулевые сэмплы : Да
Интерфейс : Встроенный Win32-интерфейс для Win NT/2000

Выходной формат : Внутренние WAV-операции
Формат сэмплов : 44.100 Гц; 16 бит; стерео

TOC извлечённого CD

Трек | Старт | Длительность | Начальный сектор | Конечный сектор
---------------------------------------------------------------------
1 | 0:00.00 | 2:25.62 | 0 | 10936
2 | 2:25.62 | 1:17.21 | 10937 | 16732
3 | 3:43.08 | 1:58.14 | 16733 | 25596
4 | 5:41.22 | 1:41.62 | 25597 | 33233
5 | 7:23.09 | 1:36.52 | 33234 | 40485
6 | 8:59.61 | 1:49.38 | 40486 | 48698
7 | 10:49.24 | 2:45.60 | 48699 | 61133
8 | 13:35.09 | 2:54.05 | 61134 | 74188
9 | 16:29.14 | 2:37.54 | 74189 | 86017
10 | 19:06.68 | 1:46.06 | 86018 | 93973
11 | 20:52.74 | 1:20.65 | 93974 | 100038
12 | 22:13.64 | 2:14.23 | 100039 | 110111
13 | 24:28.12 | 1:41.39 | 110112 | 117725
14 | 26:09.51 | 2:06.66 | 117726 | 127241
15 | 28:16.42 | 2:55.48 | 127242 | 140414
16 | 31:12.15 | 2:34.14 | 140415 | 151978
17 | 33:46.29 | 2:32.46 | 151979 | 163424
18 | 36:19.00 | 1:11.67 | 163425 | 168816
19 | 37:30.67 | 1:21.69 | 168817 | 174960
20 | 38:52.61 | 1:09.71 | 174961 | 180206

Характеристики диапазона извлечения и сообщения об ошибках

Выбранный диапазон

Имя файла D:\Игорёче-че-к\Релизы\The_Readers_Digest\Возьмёмся за руки, друзья!\За туманом (CD 3)\В. Долина Ю. Кукин - За туманом (CD 3).wav

Пиковый уровень 99.4 %
Качество диапазона 100.0 %
CRC копии 490C4ECC
Копирование... OK

Ошибок не произошло

AccurateRip: сводка

Трек 1 нет в базе данных
Трек 2 нет в базе данных
Трек 3 нет в базе данных
Трек 4 нет в базе данных
Трек 5 нет в базе данных
Трек 6 нет в базе данных
Трек 7 нет в базе данных
Трек 8 нет в базе данных
Трек 9 нет в базе данных
Трек 10 нет в базе данных
Трек 11 нет в базе данных
Трек 12 нет в базе данных
Трек 13 нет в базе данных
Трек 14 нет в базе данных
Трек 15 нет в базе данных
Трек 16 нет в базе данных
Трек 17 нет в базе данных
Трек 18 нет в базе данных
Трек 19 нет в базе данных
Трек 20 нет в базе данных

Ни одного трека нет в базе AccurateRip

Конец отчёта
01. Александр Городницкий - Снег
02. Александр Городницкий - Песня полярных летчиков
03. Александр Городницкий - Все перекаты да перекаты
04. Александр Городницкий - На материк
05. Александр Городницкий - Моряк, покрепче
06. Александр Городницкий - Над Канадой небо синее
07. Александр Городницкий - Жена французского посла
08. Александр Городницкий - Донской монастырь
09. Александр Городницкий - Чистые пруды
10. Александр Городницкий - Атланты
11. Александр Галич - Красный треугольник
12. Александр Галич - Закон природы
13. Александр Галич - Баллада о прибавочной стоимости
14. Александр Галич - Про маляров, истопника и теорию относительности
15. Александр Галич - Ночной дозор
16. Александр Галич - Облака
17. Александр Галич - Ошибка
18. Александр Галич - Городской романс (Тонечка)
19. Александр Галич - Старательский вальсок
20. Александр Галич - Когда я вернусь
Exact Audio Copy V0.99 prebeta 5 from 4. May 2009

Отчёт EAC об извлечении, выполненном 30. декабря 2009, 5:47

А. Городницкий / А. Галич / Атланты (CD 4)

Дисковод: TSSTcorpCDDVDW SH-S223L Adapter: 2 ID: 0

Режим чтения : Достоверность
Использование точного потока : Да
Отключение кэша аудио : Да
Использование указателей C2 : Нет

Коррекция смещения при чтении : 6
Способность читать области Lead-in и Lead-out : Нет
Заполнение пропущенных сэмплов тишиной : Да
Удаление блоков с тишиной в начале и конце : Нет
При вычислениях CRC использовались нулевые сэмплы : Да
Интерфейс : Встроенный Win32-интерфейс для Win NT/2000

Выходной формат : Внутренние WAV-операции
Формат сэмплов : 44.100 Гц; 16 бит; стерео

TOC извлечённого CD

Трек | Старт | Длительность | Начальный сектор | Конечный сектор
---------------------------------------------------------------------
1 | 0:00.00 | 2:51.14 | 0 | 12838
2 | 2:51.14 | 2:01.23 | 12839 | 21936
3 | 4:52.37 | 1:54.05 | 21937 | 30491
4 | 6:46.42 | 1:53.38 | 30492 | 39004
5 | 8:40.05 | 2:02.04 | 39005 | 48158
6 | 10:42.09 | 2:23.52 | 48159 | 58935
7 | 13:05.61 | 1:47.56 | 58936 | 67016
8 | 14:53.42 | 2:38.00 | 67017 | 78866
9 | 17:31.42 | 1:35.23 | 78867 | 86014
10 | 19:06.65 | 1:53.03 | 86015 | 94492
11 | 20:59.68 | 4:37.07 | 94493 | 115274
12 | 25:37.00 | 2:31.49 | 115275 | 126648
13 | 28:08.49 | 6:42.30 | 126649 | 156828
14 | 34:51.04 | 2:48.29 | 156829 | 169457
15 | 37:39.33 | 3:41.18 | 169458 | 186050
16 | 41:20.51 | 3:12.69 | 186051 | 200519
17 | 44:33.45 | 4:38.28 | 200520 | 221397
18 | 49:11.73 | 3:36.17 | 221398 | 237614
19 | 52:48.15 | 2:40.10 | 237615 | 249624
20 | 55:28.25 | 2:37.45 | 249625 | 261444

Характеристики диапазона извлечения и сообщения об ошибках

Выбранный диапазон

Имя файла D:\Игорёче-че-к\Релизы\The_Readers_Digest\Возьмёмся за руки, друзья!\Атланты (CD 4)\А. Городницкий А. Галич - Атланты (CD 4).wav

Пиковый уровень 99.9 %
Качество диапазона 100.0 %
CRC копии 24C97807
Копирование... OK

Ошибок не произошло

AccurateRip: сводка

Трек 1 нет в базе данных
Трек 2 нет в базе данных
Трек 3 нет в базе данных
Трек 4 нет в базе данных
Трек 5 нет в базе данных
Трек 6 нет в базе данных
Трек 7 нет в базе данных
Трек 8 нет в базе данных
Трек 9 нет в базе данных
Трек 10 нет в базе данных
Трек 11 нет в базе данных
Трек 12 нет в базе данных
Трек 13 нет в базе данных
Трек 14 нет в базе данных
Трек 15 нет в базе данных
Трек 16 нет в базе данных
Трек 17 нет в базе данных
Трек 18 нет в базе данных
Трек 19 нет в базе данных
Трек 20 нет в базе данных

Ни одного трека нет в базе AccurateRip

Конец отчёта
01. Жанна Бичевская - Степь да степь кругом
02. Жанна Бичевская - Поручик Голицын
03. Жанна Бичевская - Бродяга
04. Жанна Бичевская - Барьер
05. Жанна Бичевская - Окрасился месяц багрянцем
06. Жанна Бичевская - Миленький ты мой
07. Жанна Бичевская - Казачья притча
08. Жанна Бичевская - У церкви стояла карета
09. Жанна Бичевская - Чёрный ворон
10. Жанна Бичевская - Среди долины ровныя
11. Владимир Высоцкий - Банька
12. Владимир Высоцкий - Он не вернулся из боя
13. Владимир Высоцкий - Дорогая передача...
14. Владимир Высоцкий - Песня о вещей Кассандре
15. Владимир Высоцкий - Москва - Одесса
16. Владимир Высоцкий - Я не люблю
17. Владимир Высоцкий - Кони привередливые
18. Владимир Высоцкий - Тот, кто раньше с нею был
19. Владимир Высоцкий - Дом хрустальный
20. Владимир Высоцкий - Она была в Париже
Exact Audio Copy V0.99 prebeta 5 from 4. May 2009

Отчёт EAC об извлечении, выполненном 30. декабря 2009, 6:17

Ж. Бичевская / В. Высоцкий / Степь да степь кругом (CD 5)

Дисковод: TSSTcorpCDDVDW SH-S223L Adapter: 2 ID: 0

Режим чтения : Достоверность
Использование точного потока : Да
Отключение кэша аудио : Да
Использование указателей C2 : Нет

Коррекция смещения при чтении : 6
Способность читать области Lead-in и Lead-out : Нет
Заполнение пропущенных сэмплов тишиной : Да
Удаление блоков с тишиной в начале и конце : Нет
При вычислениях CRC использовались нулевые сэмплы : Да
Интерфейс : Встроенный Win32-интерфейс для Win NT/2000

Выходной формат : Внутренние WAV-операции
Формат сэмплов : 44.100 Гц; 16 бит; стерео

TOC извлечённого CD

Трек | Старт | Длительность | Начальный сектор | Конечный сектор
---------------------------------------------------------------------
1 | 0:00.00 | 3:05.30 | 0 | 13904
2 | 3:05.30 | 3:46.51 | 13905 | 30905
3 | 6:52.06 | 3:44.62 | 30906 | 47767
4 | 10:36.68 | 6:30.67 | 47768 | 77084
5 | 17:07.60 | 2:47.52 | 77085 | 89661
6 | 19:55.37 | 2:54.00 | 89662 | 102711
7 | 22:49.37 | 4:15.08 | 102712 | 121844
8 | 27:04.45 | 4:13.10 | 121845 | 140829
9 | 31:17.55 | 4:43.66 | 140830 | 162120
10 | 36:01.46 | 4:06.17 | 162121 | 180587
11 | 40:07.63 | 7:37.27 | 180588 | 214889
12 | 47:45.15 | 3:17.04 | 214890 | 229668
13 | 51:02.19 | 4:32.53 | 229669 | 250121
14 | 55:34.72 | 2:35.50 | 250122 | 261796
15 | 58:10.47 | 2:38.14 | 261797 | 273660
16 | 60:48.61 | 2:09.29 | 273661 | 283364
17 | 62:58.15 | 5:22.00 | 283365 | 307514
18 | 68:20.15 | 2:55.20 | 307515 | 320659
19 | 71:15.35 | 2:14.63 | 320660 | 330772
20 | 73:30.23 | 1:44.32 | 330773 | 338604

Характеристики диапазона извлечения и сообщения об ошибках

Выбранный диапазон

Имя файла D:\Игорёче-че-к\Релизы\The_Readers_Digest\Возьмёмся за руки, друзья!\Степь да степь кругом (CD 5)\Ж. Бичевская В. Высоцкий - Степь да степь кругом (CD 5).wav

Пиковый уровень 99.8 %
Качество диапазона 99.9 %
CRC копии 8B93DB3B
Копирование... OK

Ошибок не произошло

AccurateRip: сводка

Трек 1 нет в базе данных
Трек 2 нет в базе данных
Трек 3 нет в базе данных
Трек 4 нет в базе данных
Трек 5 нет в базе данных
Трек 6 нет в базе данных
Трек 7 нет в базе данных
Трек 8 нет в базе данных
Трек 9 нет в базе данных
Трек 10 нет в базе данных
Трек 11 нет в базе данных
Трек 12 нет в базе данных
Трек 13 нет в базе данных
Трек 14 нет в базе данных
Трек 15 нет в базе данных
Трек 16 нет в базе данных
Трек 17 нет в базе данных
Трек 18 нет в базе данных
Трек 19 нет в базе данных
Трек 20 нет в базе данных

Ни одного трека нет в базе AccurateRip

Конец отчёта
Доп. информация:
Издательские права на записи, сопроводительный текст, оформление и идеи
принадлежат ЗАО "Издательский Дом Риджерз Дайджест"
2005 ООО "Мегалайнер"
2005 ЗАО "Издательский Дом Риджерз Дайджест"
Производство копий, прокат, Распространение
и использование в коммерческих целях без согласия
"Риджерз Дайджест" запрещается
Издательские права распространяются на все кассеты
и компакт-диски, выпущенные
ЗАО "Издательский Дом Риджерз Дайджест"
Адрес для почты: 117218, Москва, а/я "Риджерз Дайджест"
Тел. отдела распространения и подписи:
(495) 725-25-70
www.rd.ru
Снимки обложек дискетницы и лицевой стороны диска, в папке Covers


Последний раз редактировалось: Игорёче-че-к (28-01-2010 20:30), всего редактировалось 8 раз(а)
Вне форума Profile PM

Игорёче-че-к

Стаж: 9 лет 8 месяцев

Сообщений: 235

Откуда: Смоленская обл., г. Десногорск

СССР

Режим только чтение: НЕТ

post 30-Дек-2009 08:09 (спустя 3 минуты)

Quote

- Всех с наступающим, беспробудным от веселья, праздником!!!

_________________
Вне форума Profile PM
Показать сообщения:    
Ответить на тему

Текущее время: 15-Сен 11:44

Часовой пояс: GMT + 3



Вы не можете начинать темы
Вы не можете отвечать на сообщения
Вы не можете редактировать свои сообщения
Вы не можете удалять свои сообщения
Вы не можете голосовать в опросах
Вы не можете прикреплять файлы к сообщениям
Вы не можете скачивать файлы
Рейтинг торрент трекеров - UpTracker.ru Анализ веб сайта Яндекс.Метрика
службы мониторинга серверов