Loading...
Error

(Авторская песня) 100 лучших песен Владимира Высоцкого - 2007, APE (image + .cue), lossless

Ответить на тему
 
Автор Сообщение

Игорёче-че-к

Стаж: 9 лет 8 месяцев

Сообщений: 235

Откуда: Смоленская обл., г. Десногорск

СССР

Режим только чтение: НЕТ

post 05-Янв-2010 09:26

Quote

100 лучших песен Владимира Высоцкого

Страна: Россия ЗАО "Издательский Дом Ридерз Дайджест"
Жанр: Авторская песня
Год выпуска: 2007
Формат: APE (image + .cue)
Битрейт аудио: lossless
Продолжительность: 5 CD (4:36:39)
Трэклист:
01. Он не вернулся из боя (2:24)
02. Тот, который не стрелял (2:49)
03. Братские могилы (1:21)
04. Давно смолкли залпы орудий (2:16)
05. Сыновья уходят в бой (2:25)
06. Песня о госпитале (1:11)
07. Мы вращаем Землю (3:20)
08. Песня о звездах (1:56)
09. Песня о Земле (2:07)
10. Солдаты группы Центр (1:29)
11. Разведка боем (2:31)
12. Спасите наши души (3:59)
13. О моем старшине (3:06)
14. Случай в ресторане (1:56)
15. Песня летчика (2:45)
16. Песня самолета-истребителя (3:28)
17. Песня про Сережку Фомина (2:39)
18. Высота (1:28)
19. Письмо (2:42)
20. Нейтральная полоса (2:11)
Exact Audio Copy V0.99 prebeta 5 from 4. May 2009

Отчёт EAC об извлечении, выполненном 5. января 2010, 5:03

Владимир Высоцкий / Горящий Смоленск, горящий Рейхстаг

Дисковод: TSSTcorpCDDVDW SH-S223L Adapter: 2 ID: 0

Режим чтения : Достоверность
Использование точного потока : Да
Отключение кэша аудио : Да
Использование указателей C2 : Нет

Коррекция смещения при чтении : 6
Способность читать области Lead-in и Lead-out : Нет
Заполнение пропущенных сэмплов тишиной : Да
Удаление блоков с тишиной в начале и конце : Нет
При вычислениях CRC использовались нулевые сэмплы : Да
Интерфейс : Встроенный Win32-интерфейс для Win NT/2000

Выходной формат : Внутренние WAV-операции
Формат сэмплов : 44.100 Гц; 16 бит; стерео

TOC извлечённого CD

Трек | Старт | Длительность | Начальный сектор | Конечный сектор
---------------------------------------------------------------------
1 | 0:00.00 | 2:23.59 | 0 | 10783
2 | 2:23.59 | 2:48.48 | 10784 | 23431
3 | 5:12.32 | 1:21.00 | 23432 | 29506
4 | 6:33.32 | 2:15.72 | 29507 | 39703
5 | 8:49.29 | 2:25.08 | 39704 | 50586
6 | 11:14.37 | 1:10.63 | 50587 | 55899
7 | 12:25.25 | 3:20.17 | 55900 | 70916
8 | 15:45.42 | 1:56.32 | 70917 | 79648
9 | 17:41.74 | 2:07.17 | 79649 | 89190
10 | 19:49.16 | 1:29.44 | 89191 | 95909
11 | 21:18.60 | 2:31.51 | 95910 | 107285
12 | 23:50.36 | 3:59.21 | 107286 | 125231
13 | 27:49.57 | 3:06.26 | 125232 | 139207
14 | 30:56.08 | 1:56.36 | 139208 | 147943
15 | 32:52.44 | 2:44.66 | 147944 | 160309
16 | 35:37.35 | 3:28.14 | 160310 | 175923
17 | 39:05.49 | 2:39.33 | 175924 | 187881
18 | 41:45.07 | 1:28.02 | 187882 | 194483
19 | 43:13.09 | 2:41.65 | 194484 | 206623
20 | 45:54.74 | 2:10.71 | 206624 | 216444

Характеристики диапазона извлечения и сообщения об ошибках

Выбранный диапазон

Имя файла D:\Игорёче-че-к\Релизы\100_Luchshih_Pesen_\100 лучших песен В.Высоцкого\Горящий Смоленск, горящий Рейхстаг\Владимир Высоцкий - Горящий Смоленск, горящий Рейхстаг.wav

Пиковый уровень 100.0 %
Качество диапазона 100.0 %
CRC копии EA9187C4
Копирование... OK

Ошибок не произошло

Конец отчёта
01. Бал-маскарад (1:38)
02. Письмо в редакцию телевизионной передачи "Очевидное - невероятное" (4:36)
03. Посещение Музы, или Песенка плагиатора (2:19)
04. Песенка о слухах (2:57)
05. Милицейский протокол (3:18)
06. Инструкция перед поездкой за рубеж, или Полчаса в месткоме (4:51)
07. Про речку Вачу и попутницу Валю (3:09)
08. Путешествие в прошлое (3:04)
09. Мой сосед объездил весь Союз (1:46)
10. Невидимка (3:09)
11. Поездка в город (2:57)
12. Жертва телевидения (4:04)
13. Письмо к другу , или Зарисовка о Париже (1:36)
14. Товарищи ученые (2:42)
15. Песня про ДЖеймса Бонда, агента 007 (5:03)
16. Веселая покойницкая (3:00)
17. Случай на таможне (4:26)
18. Песня автозавистника (2:49)
19. Лекция о международном положении, прочитаная человеком, посаженным на 15 суток за мелкое хулиганство, своим сокамерникам (2:55)
20. Песня командировочного, или Через десять лет в Аэрофлоте (5:29)
Exact Audio Copy V0.99 prebeta 5 from 4. May 2009

Отчёт EAC об извлечении, выполненном 5. января 2010, 5:20

Владимир Высоцкий / Милый Ваня, я гуляю по Парижу

Дисковод: TSSTcorpCDDVDW SH-S223L Adapter: 2 ID: 0

Режим чтения : Достоверность
Использование точного потока : Да
Отключение кэша аудио : Да
Использование указателей C2 : Нет

Коррекция смещения при чтении : 6
Способность читать области Lead-in и Lead-out : Нет
Заполнение пропущенных сэмплов тишиной : Да
Удаление блоков с тишиной в начале и конце : Нет
При вычислениях CRC использовались нулевые сэмплы : Да
Интерфейс : Встроенный Win32-интерфейс для Win NT/2000

Выходной формат : Внутренние WAV-операции
Формат сэмплов : 44.100 Гц; 16 бит; стерео

TOC извлечённого CD

Трек | Старт | Длительность | Начальный сектор | Конечный сектор
---------------------------------------------------------------------
1 | 0:00.00 | 1:38.09 | 0 | 7358
2 | 1:38.09 | 4:35.74 | 7359 | 28057
3 | 6:14.08 | 2:19.09 | 28058 | 38491
4 | 8:33.17 | 2:56.66 | 38492 | 51757
5 | 11:30.08 | 3:18.35 | 51758 | 66642
6 | 14:48.43 | 4:51.36 | 66643 | 88503
7 | 19:40.04 | 3:09.36 | 88504 | 102714
8 | 22:49.40 | 3:03.50 | 102715 | 116489
9 | 25:53.15 | 1:46.05 | 116490 | 124444
10 | 27:39.20 | 3:09.24 | 124445 | 138643
11 | 30:48.44 | 2:56.60 | 138644 | 151903
12 | 33:45.29 | 4:03.63 | 151904 | 170191
13 | 37:49.17 | 1:36.20 | 170192 | 177411
14 | 39:25.37 | 2:42.35 | 177412 | 189596
15 | 42:07.72 | 5:02.44 | 189597 | 212290
16 | 47:10.41 | 3:00.26 | 212291 | 225816
17 | 50:10.67 | 4:25.60 | 225817 | 245751
18 | 54:36.52 | 2:49.48 | 245752 | 258474
19 | 57:26.25 | 2:55.36 | 258475 | 271635
20 | 60:21.61 | 5:28.69 | 271636 | 296304

Характеристики диапазона извлечения и сообщения об ошибках

Выбранный диапазон

Имя файла D:\Игорёче-че-к\Релизы\100_Luchshih_Pesen_\100 лучших песен В.Высоцкого\Милый Ваня, я гуляю по Парижу\Владимир Высоцкий - Милый Ваня, я гуляю по Парижу.wav

Пиковый уровень 100.0 %
Качество диапазона 100.0 %
CRC копии 2BC7A869
Копирование... OK

Ошибок не произошло

Конец отчёта
01. Песня о вещем Олеге (2:39)
02. Странная сказка (2:13)
03. Про дикого вепря (2:35)
04. Песня о вещей Кассандре (2:29)
05. Песня-сказка о нечисти (2:50)
06. Куплеты нечистой силы (1:23)
07. Лукоморья больше нет (4:05)
08. Выезд Соловья-разбойника (1:44)
09. Скоморохи на ярмарке (5:41)
10. Вдалеком созвездии Тау Кита (3:47)
11. Песенка о переселении душ (2:12)
12. Переворот в мозгах из края в край (2:59)
13. Песня-сказка про джинна (3:04)
14. Про черта (2:14)
15. Песня плотника Иосифа, Девы Марии и Святого Духа (2:08)
16. Песня про козла отпущения (3:19)
17. Марш антиподов (1:10)
18. Песня об обиженнном времени (2:22)
19. Сивка-Бурка (2:05)
20. Что случилось в Африке (1:53)
Exact Audio Copy V0.99 prebeta 5 from 4. May 2009

Отчёт EAC об извлечении, выполненном 5. января 2010, 5:41

Владимир Высоцкий / Лукоморье больше нет

Дисковод: TSSTcorpCDDVDW SH-S223L Adapter: 2 ID: 0

Режим чтения : Достоверность
Использование точного потока : Да
Отключение кэша аудио : Да
Использование указателей C2 : Нет

Коррекция смещения при чтении : 6
Способность читать области Lead-in и Lead-out : Нет
Заполнение пропущенных сэмплов тишиной : Да
Удаление блоков с тишиной в начале и конце : Нет
При вычислениях CRC использовались нулевые сэмплы : Да
Интерфейс : Встроенный Win32-интерфейс для Win NT/2000

Выходной формат : Внутренние WAV-операции
Формат сэмплов : 44.100 Гц; 16 бит; стерео

TOC извлечённого CD

Трек | Старт | Длительность | Начальный сектор | Конечный сектор
---------------------------------------------------------------------
1 | 0:00.00 | 2:38.59 | 0 | 11908
2 | 2:38.59 | 2:13.26 | 11909 | 21909
3 | 4:52.10 | 2:34.47 | 21910 | 33506
4 | 7:26.57 | 2:29.32 | 33507 | 44713
5 | 9:56.14 | 2:50.03 | 44714 | 57466
6 | 12:46.17 | 1:23.42 | 57467 | 63733
7 | 14:09.59 | 4:05.20 | 63734 | 82128
8 | 18:15.04 | 1:43.57 | 82129 | 89910
9 | 19:58.61 | 5:40.57 | 89911 | 115467
10 | 25:39.43 | 3:46.74 | 115468 | 132491
11 | 29:26.42 | 2:12.11 | 132492 | 142402
12 | 31:38.53 | 2:59.08 | 142403 | 155835
13 | 34:37.61 | 3:03.57 | 155836 | 169617
14 | 37:41.43 | 2:14.11 | 169618 | 179678
15 | 39:55.54 | 2:08.32 | 179679 | 189310
16 | 42:04.11 | 3:19.41 | 189311 | 204276
17 | 45:23.52 | 1:10.20 | 204277 | 209546
18 | 46:33.72 | 2:21.51 | 209547 | 220172
19 | 48:55.48 | 2:05.33 | 220173 | 229580
20 | 51:01.06 | 1:52.45 | 229581 | 238025

Характеристики диапазона извлечения и сообщения об ошибках

Выбранный диапазон

Имя файла D:\Игорёче-че-к\Релизы\100_Luchshih_Pesen_\100 лучших песен В.Высоцкого\Лукоморье больше нет\Владимир Высоцкий - Лукоморье больше нет.wav

Пиковый уровень 98.9 %
Качество диапазона 100.0 %
CRC копии 112032CD
Копирование... OK

Ошибок не произошло

Конец отчёта
01. Банька по-белому (7:43)
02. Я не люблю (2:14)
03. Песня о друге (2:57)
04. Куплеты Бенгальского (2:01)
05. Москва - Одесса (2:47)
06. Парус (1:28)
07. Баллада о борьбе (4:13)
08. Ноль семь (2:32)
09. Натянутый канат (3:37)
10. Тот, кто раньше с нею был (3:00)
11. Татуировка (2:02)
12. Большой Каретный (1:22)
13. Охота на волков (3:17)
14. Охота на кабанов (2:12)
15. Баллада о детстве (6:10)
16. Еще не вечер (3:19)
17. Корабли (2:50)
18. О фатальных датах и цифрах (2:24)
19. Моя цыганская (4:40)
20. Кони привередливые (1:26)
Exact Audio Copy V0.99 prebeta 5 from 4. May 2009

Отчёт EAC об извлечении, выполненном 5. января 2010, 5:54

Владимир Высоцкий / Я не люблю фатального исхода

Дисковод: TSSTcorpCDDVDW SH-S223L Adapter: 2 ID: 0

Режим чтения : Достоверность
Использование точного потока : Да
Отключение кэша аудио : Да
Использование указателей C2 : Нет

Коррекция смещения при чтении : 6
Способность читать области Lead-in и Lead-out : Нет
Заполнение пропущенных сэмплов тишиной : Да
Удаление блоков с тишиной в начале и конце : Нет
При вычислениях CRC использовались нулевые сэмплы : Да
Интерфейс : Встроенный Win32-интерфейс для Win NT/2000

Выходной формат : Внутренние WAV-операции
Формат сэмплов : 44.100 Гц; 16 бит; стерео

TOC извлечённого CD

Трек | Старт | Длительность | Начальный сектор | Конечный сектор
---------------------------------------------------------------------
1 | 0:00.00 | 7:43.17 | 0 | 34741
2 | 7:43.17 | 2:14.21 | 34742 | 44812
3 | 9:57.38 | 2:57.38 | 44813 | 58125
4 | 12:55.01 | 2:00.45 | 58126 | 67170
5 | 14:55.46 | 2:46.57 | 67171 | 79677
6 | 17:42.28 | 1:28.20 | 79678 | 86297
7 | 19:10.48 | 4:13.32 | 86298 | 105304
8 | 23:24.05 | 2:31.63 | 105305 | 116692
9 | 25:55.68 | 3:37.42 | 116693 | 133009
10 | 29:33.35 | 3:00.35 | 133010 | 146544
11 | 32:33.70 | 2:02.26 | 146545 | 155720
12 | 34:36.21 | 1:21.50 | 155721 | 161845
13 | 35:57.71 | 3:17.12 | 161846 | 176632
14 | 39:15.08 | 2:12.09 | 176633 | 186541
15 | 41:27.17 | 6:09.51 | 186542 | 214267
16 | 47:36.68 | 3:19.15 | 214268 | 229207
17 | 50:56.08 | 2:49.69 | 229208 | 241951
18 | 53:46.02 | 2:23.74 | 241952 | 252750
19 | 56:10.01 | 4:40.26 | 252751 | 273776
20 | 60:50.27 | 5:22.00 | 273777 | 297926

Характеристики диапазона извлечения и сообщения об ошибках

Выбранный диапазон

Имя файла D:\Игорёче-че-к\Релизы\100_Luchshih_Pesen_\100 лучших песен В.Высоцкого\Я не люблю фатального исхода\Владимир Высоцкий - Я не люблю фатального исхода.wav

Пиковый уровень 100.0 %
Качество диапазона 100.0 %
CRC копии 3E8723BA
Копирование... OK

Ошибок не произошло

Конец отчёта
01. Дорожная истори (2:24)
02. "Я несла свою Беду .." (2:51)
03. Дом хрустальный (2:20)
04. Белое безмолвие (2:14)
05. "За меня невеста отрыдает честно ..." (2:16)
06. Чужая колея (3:18)
07. Городской романс (2:33)
08. "Здесь лапы у елей дрожат на весу ..." (3:35)
09. Она была в Париже (1:48)
10. Попутчик (2:36)
11. У тебя глаза как нож (1:28)
12. Песня о двух погибших лебедях (2:15)
13. Я был душой дурного общества (2:21)
14. "Мне каждый вечер зажигают свечи ..." (2:01)
15. Очи черные. Погоня (3:22)
16. Очи черные. Старый дом (3:14)
17. Ой, где я был вчера (2:52)
18. Иван да Марья (0:49)
19. Песня Марьи (1:15)
20. О нашей встрече (2:54)
Exact Audio Copy V0.99 prebeta 5 from 4. May 2009

Отчёт EAC об извлечении, выполненном 5. января 2010, 6:03

Владимир Высоцкий / Городской романс

Дисковод: TSSTcorpCDDVDW SH-S223L Adapter: 2 ID: 0

Режим чтения : Достоверность
Использование точного потока : Да
Отключение кэша аудио : Да
Использование указателей C2 : Нет

Коррекция смещения при чтении : 6
Способность читать области Lead-in и Lead-out : Нет
Заполнение пропущенных сэмплов тишиной : Да
Удаление блоков с тишиной в начале и конце : Нет
При вычислениях CRC использовались нулевые сэмплы : Да
Интерфейс : Встроенный Win32-интерфейс для Win NT/2000

Выходной формат : Внутренние WAV-операции
Формат сэмплов : 44.100 Гц; 16 бит; стерео

TOC извлечённого CD

Трек | Старт | Длительность | Начальный сектор | Конечный сектор
---------------------------------------------------------------------
1 | 0:00.00 | 2:23.60 | 0 | 10784
2 | 2:23.60 | 2:51.14 | 10785 | 23623
3 | 5:14.74 | 2:19.51 | 23624 | 34099
4 | 7:34.50 | 2:14.39 | 34100 | 44188
5 | 9:49.14 | 2:16.15 | 44189 | 54403
6 | 12:05.29 | 3:17.71 | 54404 | 69249
7 | 15:23.25 | 2:32.68 | 69250 | 80717
8 | 17:56.18 | 3:34.54 | 80718 | 96821
9 | 21:30.72 | 1:48.33 | 96822 | 104954
10 | 23:19.30 | 2:36.23 | 104955 | 116677
11 | 25:55.53 | 1:28.17 | 116678 | 123294
12 | 27:23.70 | 2:15.45 | 123295 | 133464
13 | 29:39.40 | 2:21.26 | 133465 | 144065
14 | 32:00.66 | 2:01.12 | 144066 | 153152
15 | 34:02.03 | 3:21.63 | 153153 | 168290
16 | 37:23.66 | 3:13.54 | 168291 | 182819
17 | 40:37.45 | 2:52.45 | 182820 | 195764
18 | 43:30.15 | 0:49.03 | 195765 | 199442
19 | 44:19.18 | 1:14.54 | 199443 | 205046
20 | 45:33.72 | 2:54.02 | 205047 | 218098

Характеристики диапазона извлечения и сообщения об ошибках

Выбранный диапазон

Имя файла D:\Игорёче-че-к\Релизы\100_Luchshih_Pesen_\100 лучших песен В.Высоцкого\Городской романс\Владимир Высоцкий - Городской романс.wav

Пиковый уровень 100.0 %
Качество диапазона 100.0 %
CRC копии 62331CEE
Копирование... OK

Ошибок не произошло

Конец отчёта
Доп. информация:
2004 В.С.Высоцкий, наследники В.С.Высоцкого
2007 ЗАО "Издательский Дом Ридерз Дайджест"
Производство копий, прокат распространение и использование
в коммерческих целях без согласия "Ридерз Дайджест" запрещается
Изготовитель ООО "Сонопресс" 150049, Россия, Ярославль, ул.Свободы, 97.
Лицензия № 77-239 до 22.02.2011

- Перед публикацией, диски были девственны, так как упаковочную плеву - я сорвал непосредственно перед рипованием!
Снимки обложек дискетницы и лицевой стороны диска, в папке Covers

_________________


Последний раз редактировалось: Игорёче-че-к (12-02-2010 04:54), всего редактировалось 7 раз(а)
Вне форума Profile PM

Игорёче-че-к

Стаж: 9 лет 8 месяцев

Сообщений: 235

Откуда: Смоленская обл., г. Десногорск

СССР

Режим только чтение: НЕТ

post 05-Янв-2010 10:14 (спустя 48 минут)

Quote

- Всех с Праздником!!!
- И индивидуальное поздравление - с Днём рождения Nikolaich!!!

_________________
Вне форума Profile PM

Nikolaich

Стаж: 10 лет

Сообщений: 2207

Эквадор

Режим только чтение: НЕТ

post 08-Янв-2010 08:55 (спустя 2 дня 22 часа)

Quote

Игорёче-че-к писал(а):

- И индивидуальное поздравление - с Днём рождения Nikolaich!!!
Спасибо! az ay

_________________
Мы жизнь учили по Геращенко
И все мы - пациенты Кащенко
Вне форума Profile PM

Игорёче-че-к

Стаж: 9 лет 8 месяцев

Сообщений: 235

Откуда: Смоленская обл., г. Десногорск

СССР

Режим только чтение: НЕТ

post 08-Янв-2010 15:27 (спустя 6 часов)

Quote

Nikolaich
- От души!!!

_________________
Вне форума Profile PM

don_ald

Стаж: 9 лет

Сообщений: 8

Россия

Режим только чтение: НЕТ

post 13-Фев-2010 15:11 (спустя 1 месяц 4 дня)

Quote

А можно скорости добавить? На раздаче один-единственный сидер, скорость не более 5 кб-сек. Прям как в модемные времена...

_________________
Вне форума Profile PM
Показать сообщения:    
Ответить на тему

Текущее время: 21-Авг 16:45

Часовой пояс: GMT + 3



Вы не можете начинать темы
Вы не можете отвечать на сообщения
Вы не можете редактировать свои сообщения
Вы не можете удалять свои сообщения
Вы не можете голосовать в опросах
Вы не можете прикреплять файлы к сообщениям
Вы не можете скачивать файлы
Рейтинг торрент трекеров - UpTracker.ru Анализ веб сайта Яндекс.Метрика
службы мониторинга серверов