Loading...
Error

(Instrumental/Soundtrack) VA - Планета хитов (Инструментальные хиты) - 2004, APE (image+.cue), lossless

Ответить на тему
 
Автор Сообщение

Игорёче-че-к

Стаж: 8 лет 7 месяцев

Сообщений: 235

Откуда: Смоленская обл., г. Десногорск

СССР

Режим только чтение: НЕТ

post 18-Янв-2010 09:00

Quote

Various Artists - Планета хитов (Инструментальные хиты)

Жанр: Instrumental/Soundtrack
Год выпуска диска: 2004
Производитель диска: Россия ООО "БМГ Россия"
Аудио кодек: APE
Тип рипа: image+.cue
Битрейт аудио: lossless
Продолжительность: 00:51:31
01. Henry Mancini - The Pink Panther Theme (тема из "Розовой пантеры")
02. Essex Electric Orchestra - James Bond Theme
03. Лирическая тема - из к/ф "Дети понедельника" - оркестр Госкино СССР (п/у Э.Хачатуряна)
04. Paul Mauriat and His Orchestra - Love Is Blue - Ворнер/Чапел (Москва)
05. Оркестр Мелодии п/у Силантьева - Manchester Et Liverpool (заставка из т/п "Прогноз погоды")
06. Ennio Morricone - Chi Mai (тема из к/ф "Профессионал")
07. Прогулка по ночному Токио (мелодия из к/ф "Мелодии белой ночи")
08. Fausto Papetti - Emmanuelle
09. Paul Mauriat and His Orchestra -Mamy Blue
10. Мелодия из к/ф "Осенний марафон" - оркестр Глскино СССР (п/у Э.Хачатуряна)
11. Paul Mauriat - Alouette "La Peregrinacion" (заставка из т/п "В мире животных") - Ворнер/Чапел (Москва)
12. Ennio Morricone - Cockey`s Song (тема из к/ф "Однажды в Америке") The Soho Strings - Ворнер/Чапел (Москва)
13. The Soho Strings - Yesterday
14. Candy Dalfer & David A.Stewart - Lily Was Here
15. Утро (из к/ф "Служебний роман") - оркестр Госкино СССР (п/у Э.Хачатуряна)
16. James Last and His Orchestra - Mitternacht in Moskau (Подмосковные вечера)
17. До свидания, Москва! (А.Пахмутова) - Ансамбль "Мелодия"
Exact Audio Copy V0.99 prebeta 5 from 4. May 2009

Отчёт EAC об извлечении, выполненном 18. января 2010, 7:38

Various / Планета хитов (Инструментальные хиты)

Дисковод: TSSTcorpCDDVDW SH-S223F Adapter: 3 ID: 0

Режим чтения : Достоверность
Использование точного потока : Да
Отключение кэша аудио : Да
Использование указателей C2 : Нет

Коррекция смещения при чтении : 6
Способность читать области Lead-in и Lead-out : Нет
Заполнение пропущенных сэмплов тишиной : Да
Удаление блоков с тишиной в начале и конце : Нет
При вычислениях CRC использовались нулевые сэмплы : Да
Интерфейс : Встроенный Win32-интерфейс для Win NT/2000

Выходной формат : Внутренние WAV-операции
Формат сэмплов : 44.100 Гц; 16 бит; стерео

TOC извлечённого CD

Трек | Старт | Длительность | Начальный сектор | Конечный сектор
---------------------------------------------------------------------
1 | 0:00.00 | 2:41.04 | 0 | 12078
2 | 2:41.04 | 1:47.00 | 12079 | 20103
3 | 4:28.04 | 2:53.67 | 20104 | 33145
4 | 7:21.71 | 2:37.58 | 33146 | 44978
5 | 9:59.54 | 2:46.03 | 44979 | 57431
6 | 12:45.57 | 5:09.54 | 57432 | 80660
7 | 17:55.36 | 4:27.58 | 80661 | 100743
8 | 22:23.19 | 3:21.12 | 100744 | 115830
9 | 25:44.31 | 2:49.00 | 115831 | 128505
10 | 28:33.31 | 3:05.00 | 128506 | 142380
11 | 31:38.31 | 2:11.61 | 142381 | 152266
12 | 33:50.17 | 4:12.72 | 152267 | 171238
13 | 38:03.14 | 3:16.40 | 171239 | 185978
14 | 41:19.54 | 4:20.42 | 185979 | 205520
15 | 45:40.21 | 2:40.37 | 205521 | 217557
16 | 48:20.58 | 3:10.26 | 217558 | 231833
17 | 51:31.09 | 3:59.26 | 231834 | 249784

Характеристики диапазона извлечения и сообщения об ошибках

Выбранный диапазон

Имя файла D:\Игорёче-че-к\Документы\Torrent\Релизы\Planet_hits_(Instrumental_hits)_[torrent.rus]\Планета хитов (Инструментальные хиты)\Various - Планета хитов (Инструментальные хиты).wav

Пиковый уровень 100.0 %
Качество диапазона 100.0 %
CRC копии AAB2904D
Копирование... OK

Ошибок не произошло

AccurateRip: сводка

Трек 1 нет в базе данных
Трек 2 нет в базе данных
Трек 3 нет в базе данных
Трек 4 нет в базе данных
Трек 5 нет в базе данных
Трек 6 нет в базе данных
Трек 7 нет в базе данных
Трек 8 нет в базе данных
Трек 9 нет в базе данных
Трек 10 нет в базе данных
Трек 11 нет в базе данных
Трек 12 нет в базе данных
Трек 13 нет в базе данных
Трек 14 нет в базе данных
Трек 15 нет в базе данных
Трек 16 нет в базе данных
Трек 17 нет в базе данных

Ни одного трека нет в базе AccurateRip

Конец отчёта
Started at: понедельник, 18. 01. 2010. - 7:38.58
1 file found

1 -===- D:\Игорёче-че-к\Документы\Torrent\Релизы\Planet_hits_(Instrumental_hits)_[torrent.rus]\Планета хитов (Инструментальные хиты)\Various - Планета хитов (Инструментальные хиты).wav
Conclusion: this track is CDDA with probability 100%

Finished at: понедельник, 18. 01. 2010. - 7:45.16 (operation time: 0:06.17)
Доп. информация:
2004 РАО ООО "БМГ Россия", Е.П.Крылатов, И.И.Шварц
2004 Планета Хитов / Одиссей
На территории России право на распространение принадлежит компании "Монолит"
Тел.: (495)933-65-96 (многоканальный); e-mail:
monolit@cityline.ru
Снимки обложек дискетницы и лицевой стороны диска, в папке Covers
Вне форума Profile PM

Игорёче-че-к

Стаж: 8 лет 7 месяцев

Сообщений: 235

Откуда: Смоленская обл., г. Десногорск

СССР

Режим только чтение: НЕТ

post 18-Янв-2010 09:04 (спустя 3 минуты)

Quote

- Всем приятного прослушивания!!!

_________________
Вне форума Profile PM

sergru

Стаж: 7 лет 8 месяцев

Сообщений: 7

Украина

Режим только чтение: НЕТ

post 20-Фев-2011 22:37 (спустя 1 год 1 месяц)

Quote

Замечательные мелодии.
Спасибо.
Вне форума Profile PM
Показать сообщения:    
Ответить на тему

Текущее время: 17-Авг 07:00

Часовой пояс: GMT + 3



Вы не можете начинать темы
Вы не можете отвечать на сообщения
Вы не можете редактировать свои сообщения
Вы не можете удалять свои сообщения
Вы не можете голосовать в опросах
Вы не можете прикреплять файлы к сообщениям
Вы не можете скачивать файлы
Рейтинг торрент трекеров - UpTracker.ru Анализ веб сайта Яндекс.Метрика
службы мониторинга серверов